<?xml version="1.0" standalone="no"?>
<!DOCTYPE svg PUBLIC "-//W3C//DTD SVG 1.1//EN" "http://www.w3.org/Graphics/SVG/1.1/DTD/svg11.dtd" >
<svg xmlns="http://www.w3.org/2000/svg" xmlns:xlink="http://www.w3.org/1999/xlink" version="1.1">
<metadata>
Created by FontForge 20190801 at Fri Mar 12 13:17:04 2021
 By www-data
Copyright 2013 The Antonio Project Authors (https://github.com/googlefonts/antonioFont)
</metadata>
<defs>
<font id="AntonioVariableFont_wght" horiz-adv-x="0" >
  <font-face 
    font-family="AntonioVariableFont_wght"
    font-weight="400"
    font-stretch="normal"
    units-per-em="2048"
    panose-1="0 0 0 0 0 0 0 0 0 0"
    ascent="1638"
    descent="-410"
    x-height="1500"
    cap-height="1760"
    bbox="-133 -637 2886 2326"
    underline-thickness="0"
    underline-position="0"
    unicode-range="U+0020-25CA"
  />
<missing-glyph horiz-adv-x="1024" 
d="M102 0v1760h820v-1760h-820zM204 102h616v1556h-616v-1556zM292 196v1369h96l250 -932l-13 396v536h113v-1369h-94l-242 940l8 -346v-594h-118z" />
    <glyph glyph-name="f_f" unicode="ff" horiz-adv-x="1246" 
d="M200 0v1291h-129v151h129v73q0 130 55.5 200.5t176.5 70.5q59 0 102 -9.5t47 -11.5v-143q-40 6 -71 6q-67 0 -86 -28t-19 -77v-81h418v73q0 130 55.5 200.5t176.5 70.5q59 0 102 -9.5t47 -11.5v-143q-40 6 -71 6q-67 0 -86 -28t-19 -77v-81h176v-151h-176v-1291h-205
v1291h-418v-1291h-205z" />
    <glyph glyph-name="f_f_i" unicode="ffi" horiz-adv-x="1749" 
d="M200 0v1349h-129v151h129v47q0 130 55.5 200.5t176.5 70.5q59 0 102 -9.5t47 -11.5v-143q-40 6 -71 6q-67 0 -86 -28t-19 -77v-55h418v47q0 130 55.5 200.5t176.5 70.5q59 0 102 -9.5t47 -11.5v-143q-40 6 -71 6q-67 0 -86 -28t-19 -77v-55h573v-1500h-205v1349h-368
v-1349h-205v1349h-418v-1349h-205zM1396 1611v189h205v-189h-205z" />
    <glyph glyph-name="f_f_l" unicode="ffl" horiz-adv-x="1747" 
d="M200 0v1291h-129v151h129v73q0 130 55.5 200.5t176.5 70.5q59 0 102 -9.5t47 -11.5v-143q-40 6 -71 6q-67 0 -86 -28t-19 -77v-81h418v73q0 101 45.5 162.5t123 90t174.5 28.5q32 0 62.5 -2.5t74.5 -9.5t114.5 -21t181.5 -38v-1725h-205v1622q-50 11 -94.5 15.5
t-82.5 4.5q-60 0 -102 -13t-64.5 -39.5t-22.5 -66.5v-81h176v-151h-176v-1291h-205v1291h-418v-1291h-205z" />
    <glyph glyph-name="f_i" unicode="fi" horiz-adv-x="1126" 
d="M200 0v1349h-129v151h129v35q0 130 55.5 200.5t176.5 70.5q59 0 102 -9.5t47 -11.5v-143q-40 6 -71 6q-67 0 -86 -28t-19 -77v-43h573v-1500h-205v1349h-368v-1349h-205zM773 1611v189h205v-189h-205z" />
    <glyph glyph-name="f_l" unicode="fl" horiz-adv-x="1124" 
d="M200 0v1291h-129v151h129v73q0 101 45.5 162.5t123 90t174.5 28.5q32 0 62.5 -2.5t74.5 -9.5t114.5 -21t181.5 -38v-1725h-205v1622q-50 11 -94.5 15.5t-82.5 4.5q-60 0 -102 -13t-64.5 -39.5t-22.5 -66.5v-81h176v-151h-176v-1291h-205z" />
    <glyph glyph-name=".notdef" horiz-adv-x="1024" 
d="M102 0v1760h820v-1760h-820zM204 102h616v1556h-616v-1556zM292 196v1369h96l250 -932l-13 396v536h113v-1369h-94l-242 940l8 -346v-594h-118z" />
    <glyph glyph-name=".null" 
 />
    <glyph glyph-name="nonmarkingreturn" horiz-adv-x="682" 
 />
    <glyph glyph-name="space" unicode=" " horiz-adv-x="494" 
 />
    <glyph glyph-name="exclam" unicode="!" horiz-adv-x="528" 
d="M222 395l-76 1365h235l-75 -1365h-84zM151 0v228h222v-228h-222z" />
    <glyph glyph-name="quotedbl" unicode="&#x22;" horiz-adv-x="744" 
d="M488 1058v702h189l-119 -702h-70zM161 1058v702h189l-119 -702h-70z" />
    <glyph glyph-name="numbersign" unicode="#" horiz-adv-x="854" 
d="M107 0l86 626h-155v91h166l51 362h-181v91h194l83 590h138l-84 -590h167l85 590h138l-82 -590h150v-91h-163l-51 -362h178v-91h-189l-87 -626h-138l85 626h-168l-85 -626h-138zM340 716h171l50 359h-169z" />
    <glyph glyph-name="dollar" unicode="$" horiz-adv-x="804" 
d="M364 -246v280h110v-280h-110zM349 1485v275h110v-275h-110zM426 -10q-160 0 -243 100.5t-83 333.5v113h199v-112q0 -126 27.5 -193t90.5 -67t92.5 41t29.5 147q0 53 -16 105.5t-49 104t-85 100.5l-106 101q-95 91 -145 193.5t-50 217.5q0 182 86 267.5t237 85.5
q101 0 170 -44t104 -146t35 -278v-72h-195v104q0 126 -24.5 193t-87.5 67q-61 0 -91.5 -35.5t-33.5 -129.5q-1 -48 12.5 -97t44.5 -97t80 -94l108 -101q105 -97 158.5 -208.5t53.5 -235.5q0 -170 -77.5 -267t-241.5 -97z" />
    <glyph glyph-name="percent" unicode="%" horiz-adv-x="2178" 
d="M652 0l708 1760h171l-700 -1760h-179zM476 581q-115 0 -183 41t-97.5 135t-29.5 252v355q0 156 29 247.5t97 131t184 39.5q117 0 185 -39.5t97 -131t29 -247.5v-355q0 -158 -29.5 -252t-97.5 -135t-184 -41zM476 742q73 0 99 43t26 152v496q0 107 -25.5 147.5t-99.5 40.5
q-73 0 -99 -41t-26 -147v-496q0 -109 26 -152t99 -43zM1690 -20q-115 0 -183.5 41t-98 134.5t-29.5 252.5v355q0 156 29 247.5t97 131t185 39.5t184.5 -39.5t96.5 -131t29 -247.5v-355q0 -159 -29.5 -252.5t-97.5 -134.5t-183 -41zM1690 141q72 0 98.5 43t26.5 152v496
q0 107 -25.5 147.5t-99.5 40.5q-73 0 -99 -41t-26 -147v-496q0 -109 26 -152t99 -43z" />
    <glyph glyph-name="ampersand" unicode="&#x26;" horiz-adv-x="958" 
d="M373 -20q-127 0 -215.5 88t-88.5 269q0 129 38 233.5t98.5 194t127.5 172.5q-62 159 -103.5 292.5t-41.5 204.5q0 170 79.5 259t213.5 89q103 0 164.5 -41.5t89 -120t27.5 -189.5q0 -97 -33.5 -190t-85.5 -179t-110 -164l158 -381q34 68 76 139t96 141l87 -146
q-58 -75 -101.5 -158t-78.5 -165l153 -328h-182l-81 170q-32 -56 -70.5 -99t-90.5 -67t-126 -24zM401 158q41 0 70 24t54.5 68t53.5 104l-171 416q-41 -59 -73 -122t-51.5 -129t-23.5 -134q-5 -106 26.5 -166.5t114.5 -60.5zM464 1072q59 80 97 173.5t38 190.5
q0 95 -21 138.5t-89 43.5q-44 0 -68 -18.5t-34 -47t-12 -60.5t-2 -60q0 -49 25.5 -148t65.5 -212z" />
    <glyph glyph-name="quotesingle" unicode="'" horiz-adv-x="413" 
d="M172 1125l-60 635h197l-65 -635h-72z" />
    <glyph glyph-name="parenleft" unicode="(" horiz-adv-x="560" 
d="M478 -242q-100 0 -166.5 16.5t-105.5 62t-55.5 130.5t-16.5 221v1164q0 136 16.5 221t55.5 130.5t105.5 62t166.5 16.5v-155q-45 0 -72.5 -7.5t-42 -33.5t-19.5 -80.5t-5 -149.5v-1172q0 -94 5 -149t19.5 -81t42 -33.5t72.5 -7.5v-155z" />
    <glyph glyph-name="parenright" unicode=")" horiz-adv-x="560" 
d="M82 -242v155q45 0 72.5 7.5t42 33.5t19.5 81t5 149v1172q0 95 -5 149.5t-19.5 80.5t-42 33.5t-72.5 7.5v155q100 0 166.5 -16.5t105.5 -62t55.5 -130.5t16.5 -221v-1164q0 -136 -16.5 -221t-55.5 -130.5t-105.5 -62t-166.5 -16.5z" />
    <glyph glyph-name="asterisk" unicode="*" horiz-adv-x="874" 
d="M357 1021l30 283l-227 -176l-80 140l250 126l-256 119l81 139l231 -168l-29 276h160l-24 -273l226 172l81 -139l-257 -126l257 -133l-81 -140l-226 178l24 -278h-160z" />
    <glyph glyph-name="plus" unicode="+" horiz-adv-x="680" 
d="M264 501v250h-224v140h224v246h149v-246h227v-140h-227v-250h-149z" />
    <glyph glyph-name="comma" unicode="," horiz-adv-x="462" 
d="M170 -344l73 344h-124v235h258v-226l-101 -353h-106z" />
    <glyph glyph-name="hyphen" unicode="-" horiz-adv-x="696" 
d="M88 763v145h452v-145h-452z" />
    <glyph glyph-name="period" unicode="." horiz-adv-x="532" 
d="M171 0v198h175v-198h-175z" />
    <glyph glyph-name="slash" unicode="/" horiz-adv-x="730" 
d="M54 0l439 1768h183l-440 -1768h-182z" />
    <glyph glyph-name="zero" unicode="0" horiz-adv-x="854" 
d="M432 -21q-144 0 -209 59t-82 170t-17 267v841q0 152 18.5 255t83.5 155.5t206 52.5t204 -52.5t78.5 -155.5t15.5 -255v-841q0 -117 -7 -209t-34 -156t-88 -97.5t-169 -33.5zM430 154q29 0 49 7.5t32 37t17.5 94t5.5 177.5v857q0 134 -11.5 192t-34.5 72t-58 14
q-34 0 -58.5 -13.5t-38 -71.5t-13.5 -192v-858q0 -114 5.5 -178t18.5 -93.5t34 -37t52 -7.5z" />
    <glyph glyph-name="one" unicode="1" horiz-adv-x="854" 
d="M393 0v1483q-24 -28 -73.5 -52.5t-103.5 -39t-91 -14.5v164q53 8 119 34.5t123.5 72.5t85.5 112h146v-1760h-206z" />
    <glyph glyph-name="two" unicode="2" horiz-adv-x="854" 
d="M174 0v98q0 101 16.5 184t56 173t107.5 210l162 287q23 40 37 83.5t22.5 89.5t11.5 92.5t3 92.5q0 127 -10 190t-33.5 83.5t-64.5 20.5q-42 0 -68 -21.5t-38 -88t-12 -200.5v-229h-202v124q0 190 20 321.5t91 200t224 68.5q117 0 179.5 -62.5t86 -172t23.5 -251.5
q0 -87 -11 -162t-35 -144t-64 -141l-160 -288q-56 -100 -85.5 -163t-40.5 -115.5t-11 -124.5h380v-155h-585z" />
    <glyph glyph-name="three" unicode="3" horiz-adv-x="854" 
d="M429 -20q-181 0 -251 117t-70 367v88h195v-81q0 -118 9 -187.5t37 -99t85 -29.5q58 0 86 33.5t37.5 107t9.5 191.5q0 133 -15 210.5t-52.5 110.5t-106.5 33h-49v165h47q67 0 105 24.5t53.5 92.5t15.5 196q0 120 -15.5 181t-44.5 82.5t-70 21.5q-42 0 -70 -25t-41.5 -87.5
t-13.5 -175.5v-42h-198v55q0 230 70.5 340t251.5 110t257.5 -115.5t76.5 -344.5q0 -146 -41.5 -251.5t-136.5 -140.5q66 -30 106 -95.5t58 -154.5t18 -192q0 -253 -77.5 -379t-265.5 -126z" />
    <glyph glyph-name="four" unicode="4" horiz-adv-x="854" 
d="M497 0v332h-416v145l391 1283h213v-1264h145v-164h-145v-332h-188zM251 496h246v916z" />
    <glyph glyph-name="five" unicode="5" horiz-adv-x="854" 
d="M450 -20q-117 0 -184 45.5t-95 122t-28 168.5v194h200v-195q0 -69 21.5 -115t85.5 -46q57 0 82 42.5t25 129.5v525q0 101 -21.5 154t-83.5 53q-50 0 -81.5 -45.5t-31.5 -141.5l-178 16v873h553v-186h-364v-411q17 32 60.5 51t92.5 19q87 0 143 -48t83 -170.5t27 -346.5
v-39q0 -160 -7.5 -281.5t-36 -203.5t-90.5 -123t-172 -41z" />
    <glyph glyph-name="six" unicode="6" horiz-adv-x="854" 
d="M460 -21q-108 0 -174.5 35t-101.5 101.5t-47.5 162t-12.5 216.5v740q0 189 26.5 309.5t97.5 178t202 57.5q110 0 175 -43.5t94 -142.5t29 -264v-83h-184v53q0 136 -10 201t-38 84.5t-82 19.5q-57 0 -80.5 -37t-28 -115.5t-4.5 -203.5v-205q26 21 69.5 37t94.5 16
q122 0 184 -59.5t83.5 -177.5t21.5 -294v-58q0 -157 -19.5 -276t-86 -185.5t-208.5 -66.5zM455 157q58 0 86 29t36.5 93.5t8.5 171.5v131q0 129 -7.5 206t-34.5 110.5t-85 33.5q-35 0 -67 -11.5t-51.5 -23.5l-19.5 -12v-425q0 -107 11 -174t40 -98t83 -31z" />
    <glyph glyph-name="seven" unicode="7" horiz-adv-x="854" 
d="M207 0q18 240 56.5 452.5t87.5 396t96 334.5q55 185 96 291t42 113h-501v173h702v-149q-3 -31 -52.5 -161.5t-107.5 -336.5q-42 -146 -82.5 -322.5t-71 -376t-44.5 -414.5h-221z" />
    <glyph glyph-name="eight" unicode="8" horiz-adv-x="854" 
d="M432 -20q-176 0 -256 105t-83 332l-1 77q-1 96 17 186.5t52.5 160.5t82.5 102q-76 55 -107.5 158t-31.5 243q0 229 72 332t256 103q185 0 255.5 -102.5t70.5 -332.5q0 -142 -28.5 -243.5t-106.5 -154.5q46 -33 76.5 -104.5t46 -162.5t15.5 -185v-70q0 -231 -76.5 -337.5
t-253.5 -106.5zM433 154q58 0 84 27t32.5 90t6.5 169v67q0 183 -31.5 269.5t-91.5 86.5q-56 0 -95 -86.5t-39 -272.5v-69q0 -155 23 -218t111 -63zM431 1007q37 0 66.5 26.5t46.5 97.5t17 205q0 127 -14.5 185.5t-43 75.5t-72.5 17q-42 0 -70.5 -19.5t-43 -79.5t-14.5 -183
q0 -132 16 -202.5t44.5 -96.5t67.5 -26z" />
    <glyph glyph-name="nine" unicode="9" horiz-adv-x="854" 
d="M427 -20q-109 0 -174.5 43.5t-94.5 142t-29 263.5v83h184v-53q0 -136 10 -201t38.5 -84.5t81.5 -19.5q58 0 81 37t27 116t4 203v205q-25 -21 -68.5 -37t-94.5 -16q-122 0 -184 59.5t-83.5 178t-21.5 293.5v58q0 118 10 215t41 167t94 108t169 38q108 0 174.5 -35
t101.5 -101.5t47.5 -162t12.5 -216.5v-740q0 -189 -26.5 -309t-97 -177.5t-202.5 -57.5zM417 826q36 0 67.5 12t51 23.5l19.5 11.5v425q0 161 -24 232t-106 71q-58 0 -87 -29t-38.5 -93.5t-9.5 -171.5v-131q0 -129 7.5 -205.5t34.5 -110.5t85 -34z" />
    <glyph glyph-name="colon" unicode=":" horiz-adv-x="489" 
d="M132 1047v260h225v-260h-225zM132 270v260h225v-260h-225z" />
    <glyph glyph-name="semicolon" unicode=";" horiz-adv-x="561" 
d="M190 -103l86 385h-74v252h226v-243l-114 -394h-124zM192 1047v260h225v-260h-225z" />
    <glyph glyph-name="less" unicode="&#x3c;" horiz-adv-x="730" 
d="M640 264l-576 385v211l576 381v-220l-433 -266l433 -277v-214z" />
    <glyph glyph-name="equal" unicode="=" horiz-adv-x="722" 
d="M84 576v159h584v-159h-584zM84 892v158h584v-158h-584z" />
    <glyph glyph-name="greater" unicode="&#x3e;" horiz-adv-x="730" 
d="M87 264v220l433 265l-433 278v214l576 -384v-211z" />
    <glyph glyph-name="question" unicode="?" horiz-adv-x="854" 
d="M258 494v316q100 31 155 73t79.5 104t30 153t5.5 220q0 132 -9 188t-69 56q-65 0 -76.5 -54t-11.5 -194v-196h-203v210q0 67 7.5 139t34.5 134t85 100.5t160 38.5t160.5 -33.5t86 -96.5t35 -152.5t7.5 -200.5q0 -173 -24 -289.5t-88.5 -186.5t-185.5 -105v-224h-179z
M261 0v299h177v-299h-177z" />
    <glyph glyph-name="at" unicode="@" horiz-adv-x="1522" 
d="M1279 33q-300 -101 -518 -88.5t-359 123.5t-209.5 307t-68.5 461q0 212 38.5 385t122 298t216.5 192.5t322 67.5q202 0 328.5 -107t186.5 -302t60 -460q0 -153 -26 -283.5t-82.5 -210t-147.5 -79.5q-63 0 -114 64t-70 149q-19 -104 -76 -167t-134 -63q-86 0 -152.5 53
t-104.5 160.5t-38 270.5q0 87 14 185.5t51.5 186.5t107 144.5t179.5 62t269 -62.5v-648q0 -94 16 -144.5t59 -50.5q37 0 59 52t31.5 155.5t9.5 257.5q0 129 -15.5 252.5t-61 223.5t-133 159t-230.5 59q-191 0 -304.5 -100.5t-163.5 -281t-50 -421.5t56.5 -407.5t174 -253
t300 -87.5t434.5 87zM758 447q47 0 86 36.5t62.5 98t23.5 136.5v524q-91 36 -154.5 19t-103 -78t-57.5 -156.5t-18 -216.5q0 -169 34.5 -266t126.5 -97z" />
    <glyph glyph-name="A" unicode="A" horiz-adv-x="907" 
d="M50 0l267 1760h249l291 -1760h-195l-50 336h-319l-46 -336h-197zM316 504h270l-139 930h-3z" />
    <glyph glyph-name="B" unicode="B" horiz-adv-x="917" 
d="M144 0v1760h318q135 0 209 -40t104 -127t31 -229v-38q0 -147 -27.5 -239.5t-105.5 -133.5q63 -25 98 -87t49.5 -149t14.5 -187v-37q-2 -172 -34.5 -281t-107.5 -160.5t-205 -51.5h-344zM351 167h127q59 0 91 29t45 101.5t13 201.5v61q0 163 -26 234.5t-112 71.5h-138
v-699zM351 1025h117q42 0 68 9.5t40.5 38.5t19.5 86t5 153v49q0 100 -15 149t-47.5 65t-85.5 16h-102v-566z" />
    <glyph glyph-name="C" unicode="C" horiz-adv-x="918" 
d="M470 -21q-128 0 -204 62.5t-109 183.5t-33 294v733q0 116 15 212.5t53.5 167t107.5 109t177 38.5q103 0 168 -36.5t101 -104t49.5 -160t13.5 -204.5v-195h-203v196q0 164 -23.5 245.5t-105.5 81.5q-87 0 -116.5 -83.5t-29.5 -242.5v-762q0 -128 11 -207.5t41.5 -115.5
t87.5 -36q83 0 109 84t26 276v195h205v-193q0 -176 -30.5 -296t-104.5 -181t-206 -61z" />
    <glyph glyph-name="D" unicode="D" horiz-adv-x="954" 
d="M144 0v1760h331q138 0 215 -57.5t108 -164.5t31 -256l1 -773q0 -178 -35.5 -290.5t-115 -165.5t-211.5 -53h-324zM350 167h106q56 0 93 24.5t55.5 91.5t18.5 194v810q0 166 -39 237.5t-128 71.5h-106v-1429z" />
    <glyph glyph-name="E" unicode="E" horiz-adv-x="755" 
d="M144 0v1760h526v-172h-319v-602h302v-172h-302v-642h323v-172h-530z" />
    <glyph glyph-name="F" unicode="F" horiz-adv-x="747" 
d="M144 0v1760h530v-173h-324v-556h304v-175h-304v-856h-206z" />
    <glyph glyph-name="G" unicode="G" horiz-adv-x="939" 
d="M441 -17q-153 0 -235 126t-82 415v738q0 116 16.5 210.5t56.5 163.5t109.5 106t175.5 37q110 0 175.5 -37.5t99.5 -106.5t45 -165t11 -212v-136h-200v229q0 128 -25.5 189.5t-105.5 61.5q-85 0 -118 -73t-33 -258v-740q0 -202 27.5 -289t117.5 -87q86 0 116.5 87.5
t30.5 292.5v229h-143v160h333v-924h-109l-28 136q-28 -74 -88.5 -113.5t-146.5 -39.5z" />
    <glyph glyph-name="H" unicode="H" horiz-adv-x="984" 
d="M144 0v1760h207v-753h282v753h207v-1760h-207v838h-282v-838h-207z" />
    <glyph glyph-name="I" unicode="I" horiz-adv-x="495" 
d="M144 0v1760h207v-1760h-207z" />
    <glyph glyph-name="J" unicode="J" horiz-adv-x="876" 
d="M412 -21q-167 0 -244.5 102.5t-77.5 307.5v230h202v-217q0 -67 5.5 -123t29.5 -90t79 -34t78.5 33t29 92.5t5.5 137.5v1342h207v-1334q0 -222 -78 -334.5t-236 -112.5z" />
    <glyph glyph-name="K" unicode="K" horiz-adv-x="909" 
d="M144 0v1760h207v-839l313 839h208l-328 -869l351 -891h-216l-326 842v-842h-209z" />
    <glyph glyph-name="L" unicode="L" horiz-adv-x="695" 
d="M144 0v1760h207v-1589h325v-171h-532z" />
    <glyph glyph-name="M" unicode="M" horiz-adv-x="1296" 
d="M144 0v1760h238l272 -1407l259 1407h239v-1760h-177v666l17 658l-265 -1324h-148l-276 1324l17 -658v-666h-176z" />
    <glyph glyph-name="N" unicode="N" horiz-adv-x="1014" 
d="M144 0v1760h156l408 -1198l-21 509v689h183v-1760h-152l-395 1208l12 -444v-764h-191z" />
    <glyph glyph-name="O" unicode="O" horiz-adv-x="944" 
d="M474 -20q-132 0 -208.5 58t-109 175t-32.5 293v776q0 152 30 264t107 174t218 62q106 0 173 -35.5t103.5 -101t50.5 -157.5t14 -206v-776q0 -176 -31.5 -293t-107 -175t-207.5 -58zM474 158q57 0 87 32.5t41 108.5t11 205v790q0 158 -25 234t-109 76q-87 0 -117.5 -75.5
t-30.5 -233.5v-791q0 -130 11 -205.5t42 -108t90 -32.5z" />
    <glyph glyph-name="P" unicode="P" horiz-adv-x="894" 
d="M144 0v1760h354q105 0 170.5 -35t100.5 -101t47.5 -159t12.5 -209v-27q0 -177 -27.5 -297t-99 -180.5t-204.5 -60.5h-147v-691h-207zM351 863h126q61 0 92 34.5t42.5 114.5t11.5 217v34q0 170 -26 251.5t-115 81.5h-131v-733z" />
    <glyph glyph-name="Q" unicode="Q" horiz-adv-x="944" 
d="M667 -269l-237 258l139 67l200 -232zM474 -20q-132 0 -208.5 58t-109 175t-32.5 293v776q0 152 30 264t107 174t218 62q106 0 173 -35.5t103.5 -101t50.5 -157.5t14 -206v-776q0 -176 -31.5 -293t-107 -175t-207.5 -58zM474 158q57 0 87 32.5t41 108.5t11 205v790
q0 158 -25 234t-109 76q-87 0 -117.5 -75.5t-30.5 -233.5v-791q0 -130 11 -205.5t42 -108t90 -32.5z" />
    <glyph glyph-name="R" unicode="R" horiz-adv-x="939" 
d="M144 0v1760h369q140 0 207 -49.5t87.5 -149t20.5 -250.5q0 -163 -33 -259t-128 -124q48 -8 79.5 -41t49.5 -103t25.5 -187.5t7.5 -295.5v-49t1 -70t2.5 -75t4.5 -65.5t8 -41.5h-206q-4 9 -7 40t-5 82t-3 121.5t-1 158v191.5q0 100 -8.5 152.5t-40 73t-100.5 24.5l-123 7
v-850h-207zM351 1002h132q57 0 87.5 22.5t41.5 90t11 202.5v12q0 112 -10.5 169.5t-40.5 77.5t-91 20h-130v-594z" />
    <glyph glyph-name="S" unicode="S" horiz-adv-x="828" 
d="M428 -20q-107 0 -174 38.5t-103 109.5t-49.5 167.5t-13.5 213.5v171h201v-179q0 -185 26.5 -264.5t114.5 -79.5q61 0 89.5 28.5t36.5 91.5t8 166q0 118 -41.5 203t-119.5 163l-115 115q-50 51 -98 111.5t-79.5 137.5t-31.5 176q0 133 28 230t102 150t210 53
q107 0 171.5 -37t97 -105.5t43 -162.5t10.5 -208v-104h-198v118q0 107 -8.5 178.5t-34.5 107.5t-81 36q-50 0 -81.5 -24.5t-45.5 -75.5t-14 -131q0 -70 17 -115.5t51.5 -84.5t84.5 -92l120 -127q95 -99 155.5 -221.5t60.5 -284.5q0 -146 -28.5 -251t-101.5 -161.5
t-209 -56.5z" />
    <glyph glyph-name="T" unicode="T" horiz-adv-x="629" 
d="M218 0v1588h-194v172h581v-172h-181v-1588h-206z" />
    <glyph glyph-name="U" unicode="U" horiz-adv-x="954" 
d="M479 -21q-130 0 -206.5 51.5t-109.5 156.5t-33 265v1308h207v-1303q0 -95 7 -163t37 -104t98 -36q69 0 98 36t35.5 103.5t6.5 162.5v1304h206v-1308q0 -160 -32 -265t-107.5 -156.5t-206.5 -51.5z" />
    <glyph glyph-name="V" unicode="V" horiz-adv-x="883" 
d="M334 0l-293 1760h197l117 -745l100 -655h4l87 655l101 745h195l-267 -1760h-241z" />
    <glyph glyph-name="W" unicode="W" horiz-adv-x="1340" 
d="M286 0l-232 1760h191l150 -1349l200 1349h169l205 -1349l127 1349h190l-208 -1760h-205l-188 1299l-199 -1299h-200z" />
    <glyph glyph-name="X" unicode="X" horiz-adv-x="796" 
d="M45 0l252 932l-244 828h181l172 -586l151 586h186l-244 -903l252 -857h-180l-179 608l-158 -608h-189z" />
    <glyph glyph-name="Y" unicode="Y" horiz-adv-x="827" 
d="M321 0v739l-306 1021h205l204 -715h4l177 715h207l-284 -1021v-739h-207z" />
    <glyph glyph-name="Z" unicode="Z" horiz-adv-x="690" 
d="M69 0v179l363 1409h-330v172h544v-158l-363 -1430h355v-172h-569z" />
    <glyph glyph-name="bracketleft" unicode="[" horiz-adv-x="628" 
d="M144 -120v1880h415v-159h-209v-1561h209v-160h-415z" />
    <glyph glyph-name="backslash" unicode="\" horiz-adv-x="736" 
d="M483 0l-411 1760h182l410 -1760h-181z" />
    <glyph glyph-name="bracketright" unicode="]" horiz-adv-x="628" 
d="M69 -120v160h209v1561h-209v159h415v-1880h-415z" />
    <glyph glyph-name="asciicircum" unicode="^" horiz-adv-x="919" 
d="M88 837l241 923h261l241 -923h-201l-170 763l-170 -763h-202z" />
    <glyph glyph-name="underscore" unicode="_" horiz-adv-x="748" 
d="M48 -198v152h651v-152h-651z" />
    <glyph glyph-name="uni0060" unicode="`" horiz-adv-x="405" 
d="M244 1640l-194 371h211l94 -371h-111z" />
    <glyph glyph-name="a" unicode="a" horiz-adv-x="902" 
d="M370 -13q-136 0 -196 105.5t-61 292.5v146q0 99 34 164.5t96 109.5t146 79.5t184 75.5v116q0 96 -6 155.5t-30.5 87.5t-78.5 28q-53 0 -79.5 -28t-34.5 -88t-8 -156v-52h-204v43q0 96 12 178.5t46 143.5t99.5 95.5t172.5 34.5q102 0 164.5 -32.5t96 -95.5t45.5 -155.5
t12 -213.5v-1021h-206v130q-9 -30 -35 -63.5t-68 -56.5t-101 -23zM428 153q54 0 93 34.5t52 68.5v571q-77 -34 -126.5 -61.5t-77 -57.5t-38.5 -72t-11 -106v-139q0 -127 22 -182.5t86 -55.5z" />
    <glyph glyph-name="b" unicode="b" horiz-adv-x="940" 
d="M558 -13q-61 0 -116.5 31.5t-87.5 107.5v-126h-205v1779h205v-398q17 64 73.5 100.5t117.5 36.5q112 0 170 -63t79.5 -171.5t21.5 -243.5v-577q0 -135 -20.5 -243t-76 -170.5t-161.5 -62.5zM490 154q75 1 97.5 75t22.5 234v604q0 84 -7 146.5t-31.5 97.5t-77.5 35
q-45 0 -76 -20.5t-47.5 -80.5t-16.5 -179v-608q0 -152 25.5 -228t110.5 -76z" />
    <glyph glyph-name="c" unicode="c" horiz-adv-x="878" 
d="M459 -18q-109 0 -175.5 37t-101 106.5t-46.5 166t-12 214.5v502q0 150 25 265t98 180t217 65q100 0 161.5 -33t94 -95t44 -148t11.5 -191v-104h-202v132q0 86 -5.5 144.5t-28.5 88.5t-77 30q-57 0 -85 -32.5t-37.5 -93t-9.5 -143.5v-638q0 -93 8 -154.5t35 -92t83 -30.5
q54 0 78.5 32.5t31.5 94t7 146.5v145h202v-97q0 -111 -11 -202t-43.5 -157t-95.5 -102t-166 -36z" />
    <glyph glyph-name="d" unicode="d" horiz-adv-x="939" 
d="M379 -13q-111 0 -165.5 65t-72 176.5t-17.5 251.5v567q0 134 24.5 240.5t87 168.5t174.5 62q59 0 105.5 -34t70.5 -84v379h206v-1779h-206v126q-30 -74 -85 -106.5t-122 -32.5zM450 154q47 0 77.5 23.5t45 87.5t14.5 183v602q0 146 -24.5 221t-107.5 75
q-75 -1 -100 -73.5t-25 -227.5v-606q0 -87 8.5 -151t34.5 -99t77 -35z" />
    <glyph glyph-name="e" unicode="e" horiz-adv-x="881" 
d="M454 -18q-108 0 -173.5 37.5t-99.5 106.5t-45.5 165.5t-11.5 213.5v530q0 106 15 194.5t52 153t103 100t168 35.5q103 0 166 -36t95.5 -101.5t43.5 -156t11 -198.5v-283h-448v-299q0 -142 19.5 -216.5t106.5 -74.5q57 0 81.5 35.5t30 100t5.5 152.5v121h201v-64
q0 -117 -9.5 -212t-40.5 -163t-95.5 -104.5t-174.5 -36.5zM329 882h244v191q0 90 -6 151.5t-29 93t-76 31.5q-59 0 -87.5 -36t-37 -99.5t-8.5 -147.5v-184z" />
    <glyph glyph-name="f" unicode="f" horiz-adv-x="651" 
d="M202 0v1291h-129v151h129v73q0 130 55.5 200.5t176.5 70.5q59 0 102 -9.5t47 -11.5v-143q-40 6 -71 6q-67 0 -86 -28t-19 -77v-81h176v-151h-176v-1291h-205z" />
    <glyph glyph-name="g" unicode="g" horiz-adv-x="929" 
d="M446 -229q-103 -3 -185.5 23t-141.5 73l74 140q44 -30 104 -53t139 -21q70 2 108.5 52.5t38.5 135.5v143q-29 -74 -80 -99t-116 -25q-105 0 -162.5 61t-80 167t-22.5 240v430q0 137 26.5 246t88.5 172.5t168 61.5q64 -1 110.5 -32t67.5 -96v110h205v-1360
q0 -64 -15.5 -128t-53 -117.5t-104 -87t-169.5 -36.5zM466 303q40 0 66 24t38.5 89.5t12.5 188.5v463q0 137 -24.5 208t-102.5 71q-57 0 -84.5 -35.5t-35.5 -97.5t-8 -144v-467q0 -149 27 -224.5t111 -75.5z" />
    <glyph glyph-name="h" unicode="h" horiz-adv-x="969" 
d="M145 0v1779h205v-438q20 70 84.5 124t154.5 54q113 0 177 -80t64 -243v-1196h-205v1179q0 92 -33.5 127.5t-89.5 35.5q-41 0 -76 -19.5t-55.5 -61t-20.5 -107.5v-1154h-205z" />
    <glyph glyph-name="i" unicode="i" horiz-adv-x="504" 
d="M149 0v1500h206v-1500h-206zM149 1638v188h206v-188h-206z" />
    <glyph glyph-name="j" unicode="j" horiz-adv-x="520" 
d="M200 -211q-48 0 -84.5 4t-53.5 7v144q10 -1 25.5 -2t32.5 -1q29 0 39.5 20.5t10.5 48.5v1490h205v-1480q0 -85 -25.5 -136t-65.5 -73t-84 -22zM171 1638v188h206v-188h-206z" />
    <glyph glyph-name="k" unicode="k" horiz-adv-x="896" 
d="M149 0v1779h205v-992l295 713h207l-316 -741l333 -759h-211l-308 730v-730h-205z" />
    <glyph glyph-name="l" unicode="l" horiz-adv-x="503" 
d="M147 0v1779h205v-1779h-205z" />
    <glyph glyph-name="m" unicode="m" horiz-adv-x="1430" 
d="M143 0v1500h205v-156q20 71 80.5 123t153.5 52q74 0 129 -36t83 -116q37 68 102 110t152 42q119 0 181 -84.5t62 -250.5v-1184h-205v1190q0 85 -33 118.5t-87 33.5q-77 0 -111.5 -34.5t-34.5 -123.5v-1184h-206v1191q0 80 -31 115.5t-87 35.5q-73 0 -110.5 -47
t-37.5 -127v-1168h-205z" />
    <glyph glyph-name="n" unicode="n" horiz-adv-x="968" 
d="M143 0v1500h205v-159q20 70 85.5 124t156.5 54q113 0 176 -80t63 -243v-1196h-205v1195q0 80 -36 116t-92 36q-41 0 -75 -18t-53.5 -56t-19.5 -98v-1175h-205z" />
    <glyph glyph-name="o" unicode="o" horiz-adv-x="914" 
d="M459 -18q-106 0 -172 36.5t-101.5 104t-48.5 162t-13 211.5v531q0 141 27 252t99.5 175t208.5 64q102 0 167 -36.5t101 -103t49.5 -156t13.5 -195.5v-531q0 -115 -12 -209t-46.5 -162.5t-100 -105.5t-172.5 -37zM459 153q54 0 80.5 36t35.5 100.5t9 149.5v629
q0 84 -9 146.5t-36 97.5t-80 35q-56 0 -84 -35t-36.5 -97.5t-8.5 -146.5v-629q0 -85 8.5 -149.5t36.5 -100.5t84 -36z" />
    <glyph glyph-name="p" unicode="p" horiz-adv-x="939" 
d="M147 -274v1774h205v-125q30 74 88.5 106t119.5 32q108 0 163 -63.5t73.5 -172.5t18.5 -247v-543q0 -142 -21.5 -256.5t-83 -181.5t-183.5 -67q-58 0 -104.5 35.5t-70.5 82.5v-374h-205zM487 154q74 1 98 74.5t24 230.5v607q0 83 -7 146t-32 98.5t-79 35.5q-43 0 -74 -20
t-48 -80t-17 -180v-615q0 -149 25.5 -223t109.5 -74z" />
    <glyph glyph-name="q" unicode="q" horiz-adv-x="937" 
d="M585 -274v378q-21 -49 -68 -85.5t-105 -36.5q-118 0 -180.5 65.5t-85 178t-22.5 254.5v550q0 137 20 246.5t75 173t161 63.5q61 0 117.5 -29.5t87.5 -100.5v117h205v-1774h-205zM445 154q45 0 76 21t47 81.5t16 178.5v615q0 152 -26.5 224t-107.5 72q-76 -1 -98.5 -74
t-22.5 -228v-607q0 -126 18 -204.5t98 -78.5z" />
    <glyph glyph-name="r" unicode="r" horiz-adv-x="642" 
d="M147 0v1500h206v-167q26 87 90.5 136t164.5 49q2 0 2.5 -26.5t0.5 -60.5v-60.5v-26.5q-48 0 -96 -11.5t-90 -39t-72 -74.5v-1219h-206z" />
    <glyph glyph-name="s" unicode="s" horiz-adv-x="804" 
d="M426 -20q-160 0 -243 100.5t-83 333.5v113h199v-112q0 -126 27.5 -193t90.5 -67t92.5 41t29.5 147q0 53 -16 105.5t-49 104t-85 100.5l-106 101q-95 91 -145 193.5t-50 217.5q0 182 86 267.5t237 85.5q101 0 170 -44t104 -146t35 -278v-72h-195v104q0 126 -24.5 193
t-87.5 67q-61 0 -91.5 -35.5t-33.5 -129.5q-1 -48 12.5 -97t44.5 -97t80 -94l108 -101q105 -97 158.5 -208.5t53.5 -235.5q0 -170 -77.5 -267t-241.5 -97z" />
    <glyph glyph-name="t" unicode="t" horiz-adv-x="596" 
d="M408 -9q-96 0 -145 23t-66 74t-17 135v1113h-137v152h137v272h205v-272h162v-152h-162v-1095q0 -38 10 -56.5t45 -24.5t109 -6v-163h-141z" />
    <glyph glyph-name="u" unicode="u" horiz-adv-x="962" 
d="M386 -20q-67 0 -124 33t-92 106.5t-35 192.5v1188h205v-1165q0 -87 31 -132t98 -45q74 0 109.5 51.5t35.5 130.5v1160h206v-1500h-206v153q-22 -70 -79 -121.5t-149 -51.5z" />
    <glyph glyph-name="v" unicode="v" horiz-adv-x="774" 
d="M266 0l-217 1500h186l117 -851l41 -355h7l35 356l104 850h187l-219 -1500h-241z" />
    <glyph glyph-name="w" unicode="w" horiz-adv-x="1166" 
d="M230 0l-175 1500h172l79 -835l23 -287h9l38 288l119 834h54h92h33l119 -812l41 -310h8l24 311l78 811h168l-181 -1500h-189l-151 1174l-180 -1174h-181z" />
    <glyph glyph-name="x" unicode="x" horiz-adv-x="751" 
d="M30 0l252 773l-235 727h181l158 -479l140 479h186l-242 -734l252 -766h-191l-164 510l-151 -510h-186z" />
    <glyph glyph-name="y" unicode="y" horiz-adv-x="786" 
d="M104 -251v155h71q44 0 76.5 4.5t39.5 19.5q12 16 9.5 50.5t-8.5 74.5l-245 1447h199l108 -780l44 -406h18l39 406l98 780h198l-249 -1529q-12 -81 -30 -130t-55.5 -70.5t-111.5 -21.5h-201z" />
    <glyph glyph-name="z" unicode="z" horiz-adv-x="673" 
d="M72 0v153l330 1170h-305v177h517v-141l-331 -1184h314v-175h-525z" />
    <glyph glyph-name="braceleft" unicode="{" horiz-adv-x="657" 
d="M521 -220q-106 0 -168 30t-88.5 104t-26.5 204v335q0 96 -8.5 145t-38 66t-92.5 17v200q63 0 92.5 17t38 66t8.5 145v335q0 131 26.5 204.5t88.5 103.5t168 30h60v-167q-61 0 -90.5 -13t-39 -52t-9.5 -119v-296q0 -132 -11.5 -200.5t-47 -100t-107.5 -53.5
q72 -21 107.5 -53t47 -100.5t11.5 -200.5v-296q0 -79 9.5 -118.5t39 -52.5t90.5 -13v-167h-60z" />
    <glyph glyph-name="bar" unicode="|" horiz-adv-x="537" 
d="M175 -124v1961h197v-1961h-197z" />
    <glyph glyph-name="braceright" unicode="}" horiz-adv-x="657" 
d="M76 -220v167q61 0 90.5 13t39 52.5t9.5 118.5v296q0 132 11.5 200.5t47 100.5t107.5 53q-72 22 -107.5 53.5t-47 100t-11.5 200.5v296q0 80 -9.5 119t-39 52t-90.5 13v167h60q106 0 168 -30t88.5 -103.5t26.5 -204.5v-335q0 -96 8.5 -145t38 -66t92.5 -17v-200
q-63 0 -92.5 -17t-38 -66t-8.5 -145v-335q0 -130 -26.5 -204t-88.5 -104t-168 -30h-60z" />
    <glyph glyph-name="asciitilde" unicode="~" horiz-adv-x="1117" 
d="M260 831l-149 78q38 110 96 167.5t134 57.5q39 0 95.5 -13.5t116.5 -30.5t109 -30.5t73 -13.5q26 3 51.5 30.5t42.5 84.5l164 -42q-13 -51 -35 -102t-51.5 -92.5t-65.5 -67t-77 -25.5q-43 0 -97 14t-110.5 32t-109 32t-92.5 14q-30 0 -52.5 -23t-42.5 -70z" />
    <glyph glyph-name="uni00A0" unicode="&#xa0;" horiz-adv-x="494" 
 />
    <glyph glyph-name="exclamdown" unicode="&#xa1;" horiz-adv-x="528" 
d="M304 1105l76 -1365h-235l75 1365h84zM375 1500v-228h-222v228h222z" />
    <glyph glyph-name="cent" unicode="&#xa2;" horiz-adv-x="878" 
d="M402 1512v255h113v-257zM402 -250v255h113v-255h-113zM459 -18q-109 0 -175.5 37t-101 106.5t-46.5 166t-12 214.5v502q0 150 25 265t98 180t217 65q100 0 161.5 -33t94 -95t44 -148t11.5 -191v-104h-202v132q0 86 -5.5 144.5t-28.5 88.5t-77 30q-57 0 -85 -32.5
t-37.5 -93t-9.5 -143.5v-638q0 -93 8 -154.5t35 -92t83 -30.5q54 0 78.5 32.5t31.5 94t7 146.5v145h202v-97q0 -111 -11 -202t-43.5 -157t-95.5 -102t-166 -36z" />
    <glyph glyph-name="sterling" unicode="&#xa3;" horiz-adv-x="854" 
d="M118 0v143q43 23 85.5 62.5t73.5 97t41 136.5t-13 181q-10 47 -20.5 94.5t-21.5 94.5h-182v140h148l-41 197q-17 84 -26.5 141.5t-9.5 115.5q0 202 82.5 290.5t244.5 88.5q110 0 177.5 -42t98.5 -129t31 -223v-142h-174v147q0 67 -8.5 117.5t-36 79t-85.5 28.5
q-42 0 -72 -14t-46.5 -59t-16.5 -139q0 -51 7.5 -101.5t26.5 -139.5l47 -216h304v-140h-267q10 -49 19 -97.5t19 -97.5q23 -115 11.5 -203.5t-53.5 -150.5t-111 -96h437v-164h-669z" />
    <glyph glyph-name="currency" unicode="&#xa4;" horiz-adv-x="1159" 
d="M274 509l-149 150l91 91q-53 98 -53 214q0 117 52 214l-90 90l149 150l87 -88q97 55 218 55t218 -54l87 87l150 -149l-90 -90q54 -97 54 -215t-54 -216l90 -90l-150 -149l-89 88q-92 -52 -216 -52t-216 53zM579 703q74 0 129 36t85 95.5t30 131.5q0 111 -65.5 184.5
t-178.5 73.5q-73 0 -128 -35t-85 -94t-30 -131t30 -131.5t84.5 -94.5t128.5 -35z" />
    <glyph glyph-name="yen" unicode="&#xa5;" horiz-adv-x="827" 
d="M75 391v116h292v175h-292v116h678v-116h-257v-175h257v-116h-678zM321 0v739l-306 1021h205l204 -715h4l177 715h207l-284 -1021v-739h-207z" />
    <glyph glyph-name="brokenbar" unicode="&#xa6;" horiz-adv-x="485" 
d="M144 -149v839h197v-839h-197zM144 930v830h197v-830h-197z" />
    <glyph glyph-name="section" unicode="&#xa7;" horiz-adv-x="805" 
d="M426 -20q-147 0 -236.5 90t-89.5 270v94h199v-92q0 -97 24 -157t114 -60q62 0 92 43t30 113q0 60 -13.5 101t-39.5 72.5t-65 62.5l-198 162q-64 53 -110 117.5t-46 156.5q0 73 39.5 135t115.5 94q-69 62 -111.5 144t-42.5 161q0 89 38 155t110.5 103t174.5 37
q139 0 223.5 -92t84.5 -267v-91h-194v86q0 126 -41 172.5t-88 46.5q-40 0 -69 -19.5t-44 -52.5t-15 -72t11 -72t43 -70t95 -91l203 -171q65 -54 96.5 -103t40 -92.5t4.5 -83.5q-5 -54 -34 -91.5t-67 -64t-74 -48.5q98 -83 128.5 -171.5t30.5 -153.5q0 -136 -88 -218.5
t-231 -82.5zM514 683q32 22 53 52t21 69q0 48 -27.5 93t-82.5 91t-140 97q-39 -22 -60 -55.5t-21 -71.5q0 -33 25 -68.5t81.5 -84t150.5 -122.5z" />
    <glyph glyph-name="uni00A8" unicode="&#xa8;" horiz-adv-x="814" 
d="M534 1640v178h230v-178h-230zM50 1640v178h230v-178h-230z" />
    <glyph glyph-name="copyright" unicode="&#xa9;" horiz-adv-x="1466" 
d="M741 205q-140 0 -259.5 49.5t-209 139t-139 209t-49.5 259.5t49.5 259.5t139 209t209 139t259.5 49.5t259.5 -49.5t209 -139t139 -209t49.5 -259.5t-49.5 -259.5t-139 -209t-209 -139t-259.5 -49.5zM741 334q129 0 226 45t161.5 120.5t96.5 170t32 193.5q0 132 -57.5 253
t-172 197.5t-286.5 76.5q-129 0 -225.5 -45t-161 -120.5t-97 -170t-32.5 -193.5q0 -132 57.5 -253t172 -197.5t286.5 -76.5zM732 424q-104 0 -154.5 56.5t-50.5 147.5v461q0 96 42.5 156t166.5 60q101 0 152.5 -43.5t51.5 -166.5v-118h-125v107q0 74 -22.5 89.5t-54.5 15.5
t-59 -14.5t-27 -77.5v-481q0 -52 27 -66t59 -14t54.5 14t22.5 66v149h129v-142q0 -94 -45 -146.5t-167 -52.5z" />
    <glyph glyph-name="ordfeminine" unicode="&#xaa;" horiz-adv-x="927" 
d="M406 556q-109 0 -156.5 84.5t-48.5 233.5v118q0 80 27 132t76.5 87.5t116.5 64t148 61.5v68q0 78 -3.5 131.5t-22.5 81t-66 27.5q-64 0 -81 -50t-17 -166v-44h-163v35q0 77 9.5 142.5t36.5 115t79.5 77t138.5 27.5q109 0 163 -46t72.5 -134.5t18.5 -217.5v-817h-164v100
q-9 -31 -51 -71t-113 -40zM453 689q44 0 75 28t41 55v453q-83 -37 -127 -64.5t-60 -65.5t-16 -107v-108q0 -103 18 -147t69 -44z" />
    <glyph glyph-name="guillemotleft" unicode="&#xab;" horiz-adv-x="1304" 
d="M1098 372l-478 285v182l478 271v-207l-312 -154l312 -163v-214zM560 372l-478 285v182l478 271v-207l-312 -154l312 -163v-214z" />
    <glyph glyph-name="logicalnot" unicode="&#xac;" horiz-adv-x="947" 
d="M602 439v357h-505v183h696v-540h-191z" />
    <glyph glyph-name="uni00AD" unicode="&#xad;" horiz-adv-x="696" 
d="M90 573v168h516v-168h-516z" />
    <glyph glyph-name="registered" unicode="&#xae;" horiz-adv-x="1502" 
d="M567 430v852h211q109 0 138.5 -50.5t29.5 -158.5v-20q0 -61 -13.5 -99.5t-84.5 -54.5q67 -7 79 -47.5t12 -91.5v-330h-128v332q0 25 -7 44.5t-31 30.5t-74 11v-418h-132zM700 945h56q52 0 60.5 33.5t8.5 94.5q0 68 -21 89.5t-104 21.5v-239zM751 334q129 0 226 45
t161.5 120.5t96.5 170t32 193.5q0 132 -57.5 253t-172 197.5t-286.5 76.5q-129 0 -225.5 -45t-161 -120.5t-97 -170t-32.5 -193.5q0 -132 57.5 -253t172 -197.5t286.5 -76.5zM751 205q-140 0 -259.5 49.5t-209 139t-139 209t-49.5 259.5t49.5 259.5t139 209t209 139
t259.5 49.5t259.5 -49.5t209 -139t139 -209t49.5 -259.5t-49.5 -259.5t-139 -209t-209 -139t-259.5 -49.5z" />
    <glyph glyph-name="uni00AF" unicode="&#xaf;" horiz-adv-x="616" 
d="M50 1640v142h516v-142h-516z" />
    <glyph glyph-name="degree" unicode="&#xb0;" horiz-adv-x="915" 
d="M457 1114q-88 0 -169 37t-132.5 111.5t-51.5 185.5q0 112 51.5 186t133 111t169.5 37t169 -37t132.5 -111t51.5 -186q0 -111 -51.5 -185.5t-132.5 -111.5t-170 -37zM459 1235q50 0 95 23.5t74 71t29 118.5t-29 118.5t-75 71t-96 23.5q-49 0 -94.5 -23.5t-74.5 -71
t-29 -118.5t29 -118.5t75 -71t96 -23.5z" />
    <glyph glyph-name="plusminus" unicode="&#xb1;" horiz-adv-x="854" 
d="M353 516v250h-224v140h224v246h148v-246h228v-140h-228v-250h-148zM165 188v149h516v-149h-516z" />
    <glyph glyph-name="uni00B2" unicode="&#xb2;" horiz-adv-x="846" 
d="M226 490v67q0 31 16.5 86t43 122t57 135.5t60 128.5t51 100.5t28.5 49.5q24 44 39 118.5t15 140.5q0 90 -10.5 136t-28.5 62t-41 16q-24 0 -43.5 -16.5t-31 -64.5t-11.5 -143v-166h-148v78q0 139 14.5 237t67 150t164.5 52q64 0 105 -30t64.5 -80.5t33 -113t9.5 -128.5
q0 -102 -25.5 -187t-64.5 -160.5t-81.5 -149.5t-77 -153.5t-50.5 -173.5h283v-113h-438z" />
    <glyph glyph-name="uni00B3" unicode="&#xb3;" horiz-adv-x="868" 
d="M433 571q-130 0 -183 82.5t-53 248.5v54h142v-54q0 -120 17 -166.5t79 -46.5t81.5 51.5t19.5 170.5q0 131 -29.5 184t-104.5 53h-29v113h28q48 1 77.5 16t43 59.5t13.5 130.5q0 80 -13 121t-35.5 55.5t-51.5 14.5q-30 0 -50.5 -16.5t-30.5 -58.5t-10 -119v-25h-143v28
q0 155 53.5 233.5t183.5 78.5q127 0 184.5 -79.5t57.5 -232.5q0 -98 -27.5 -167.5t-92.5 -93.5q68 -30 95 -111.5t27 -184.5q0 -169 -58.5 -254t-190.5 -85z" />
    <glyph glyph-name="uni00B4" unicode="&#xb4;" horiz-adv-x="405" 
d="M50 1640l94 371h211l-194 -371h-111z" />
    <glyph glyph-name="uni00B5" unicode="&#xb5;" horiz-adv-x="962" 
d="M386 -20q-67 0 -124 33t-92 106.5t-35 192.5v1188h205v-1165q0 -87 31 -132t98 -45q74 0 109.5 51.5t35.5 130.5v1160h206v-1500h-206v153q-22 -70 -79 -121.5t-149 -51.5zM135 483h205v-748h-205v748z" />
    <glyph glyph-name="paragraph" unicode="&#xb6;" horiz-adv-x="1064" 
d="M421 0v1135q-160 18 -241.5 97t-81.5 224q0 91 28.5 150t90 92.5t160.5 47.5t240 14h303v-1760h-178v1575h-143v-1575h-178z" />
    <glyph glyph-name="periodcentered" unicode="&#xb7;" horiz-adv-x="480" 
d="M148 769v208h200v-208h-200z" />
    <glyph glyph-name="uni00B8" unicode="&#xb8;" horiz-adv-x="495" 
d="M167 -617q-57 0 -117 18v98q95 0 144.5 20t68 52.5t18.5 69.5q0 68 -49 109t-111 54l40 196h69l12 -144q104 -43 153.5 -108t49.5 -133q0 -61 -34.5 -114t-96.5 -85.5t-147 -32.5z" />
    <glyph glyph-name="uni00B9" unicode="&#xb9;" horiz-adv-x="627" 
d="M253 487v1070q-29 -28 -75.5 -42.5t-87.5 -14.5v100q40 5 82.5 25t78 54.5t51.5 80.5h107v-1273h-156z" />
    <glyph glyph-name="ordmasculine" unicode="&#xba;" horiz-adv-x="829" 
d="M417 552q-113 0 -171.5 51t-79 144t-20.5 217v424q0 113 21.5 202t80 140.5t169.5 51.5q112 0 169 -51t77 -140t20 -203v-424q0 -122 -19 -215t-76 -145t-171 -52zM417 689q62 -1 81 62t19 167v503q0 101 -18 162.5t-82 61.5q-68 0 -86.5 -61.5t-18.5 -162.5v-503
q0 -103 19 -166t86 -63z" />
    <glyph glyph-name="guillemotright" unicode="&#xbb;" horiz-adv-x="1304" 
d="M710 372v214l312 163l-312 154v207l478 -271v-182zM172 372v214l312 163l-312 154v207l478 -271v-182z" />
    <glyph glyph-name="onequarter" unicode="&#xbc;" horiz-adv-x="1535" 
d="M467 0l479 1760h133l-479 -1760h-133zM250 514v1051q-27 -28 -71 -42.5t-84 -14.5v96q38 5 78 24.5t73.5 53t50.5 78.5h100v-1246h-147zM1190 0v219h-281v91l251 837h156v-822h90v-106h-90v-219h-126zM1028 325h162v603z" />
    <glyph glyph-name="onehalf" unicode="&#xbd;" horiz-adv-x="1620" 
d="M477 0l479 1760h133l-479 -1760h-133zM250 514v1051q-27 -28 -71 -42.5t-84 -14.5v96q38 5 78 24.5t73.5 53t50.5 78.5h100v-1246h-147zM1096 0v65q0 39 12 121.5t59 167.5l179 320q25 44 39 117t14 138q0 89 -10.5 134.5t-28.5 61.5t-41 16t-42 -16t-30.5 -63.5
t-11.5 -142.5v-163h-143v77q0 136 14 232t65 147t161 51q84 0 128.5 -51t61 -130t16.5 -164t-17.5 -158.5t-52.5 -137.5l-159 -288q-28 -51 -43.5 -107t-20.5 -119h277v-108h-426z" />
    <glyph glyph-name="threequarters" unicode="&#xbe;" horiz-adv-x="1555" 
d="M467 0l479 1760h133l-479 -1760h-133zM340 609q-121 0 -171 79.5t-50 242.5v50h132v-50q0 -119 16 -164.5t77 -45.5q59 0 78.5 50.5t19.5 167.5q0 129 -29 180.5t-100 51.5h-28v111h26q45 1 73.5 15t42 56.5t13.5 127.5q0 80 -12.5 120.5t-34.5 54.5t-50 14
q-29 0 -48.5 -16.5t-29 -58t-9.5 -117.5v-24h-133v27q0 151 50 226t171 75q120 0 174 -76t54 -225q0 -96 -26 -164t-88 -91q65 -29 91 -108.5t26 -180.5q0 -164 -55.5 -246t-179.5 -82zM1190 0v219h-281v91l251 837h156v-822h90v-106h-90v-219h-126zM1028 325h162v603z" />
    <glyph glyph-name="questiondown" unicode="&#xbf;" horiz-adv-x="854" 
d="M623 1007v-316q-100 -31 -155 -73t-79.5 -104t-30 -153t-5.5 -220q0 -132 9 -188t69 -56q65 0 76.5 54t11.5 194v196h203v-210q0 -67 -7.5 -139t-34.5 -134t-85 -100.5t-160 -38.5t-160.5 33.5t-86 96.5t-35 152.5t-7.5 200.5q0 173 24 289.5t88.5 186.5t185.5 105v224
h179zM620 1501v-299h-177v299h177z" />
    <glyph glyph-name="Agrave" unicode="&#xc0;" horiz-adv-x="907" 
d="M50 0l267 1760h249l291 -1760h-195l-50 336h-319l-46 -336h-197zM316 504h270l-139 930h-3zM425 1900l-194 371h211l94 -371h-111z" />
    <glyph glyph-name="Aacute" unicode="&#xc1;" horiz-adv-x="907" 
d="M50 0l267 1760h249l291 -1760h-195l-50 336h-319l-46 -336h-197zM316 504h270l-139 930h-3zM322 1900l94 371h211l-194 -371h-111z" />
    <glyph glyph-name="Acircumflex" unicode="&#xc2;" horiz-adv-x="907" 
d="M50 0l267 1760h249l291 -1760h-195l-50 336h-319l-46 -336h-197zM316 504h270l-139 930h-3zM174 1900l154 292h232l153 -292h-183l-86 205l-86 -205h-184z" />
    <glyph glyph-name="Atilde" unicode="&#xc3;" horiz-adv-x="907" 
d="M50 0l267 1760h249l291 -1760h-195l-50 336h-319l-46 -336h-197zM316 504h270l-139 930h-3zM591 1900q-44 0 -92 20.5t-94.5 41t-88.5 20.5q-16 0 -23 -2q-16 -4 -26.5 -18.5t-24.5 -40.5l-111 49q20 68 47.5 101.5t61 45t71.5 11.5q41 0 92.5 -18.5t98 -37t71.5 -18.5h4
q14 2 27 14t29 57l123 -28l-9 -37q-26 -100 -62.5 -130t-93.5 -30z" />
    <glyph glyph-name="Adieresis" unicode="&#xc4;" horiz-adv-x="907" 
d="M50 0l267 1760h249l291 -1760h-195l-50 336h-319l-46 -336h-197zM316 504h270l-139 930h-3zM571 1900v178h230v-178h-230zM87 1900v178h230v-178h-230z" />
    <glyph glyph-name="Aring" unicode="&#xc5;" horiz-adv-x="907" 
d="M50 0l267 1760h249l291 -1760h-195l-50 336h-319l-46 -336h-197zM316 504h270l-139 930h-3zM444 1900q-97 0 -148.5 56.5t-51.5 131.5q0 74 51.5 130.5t148.5 56.5q98 0 149 -56.5t51 -130.5q0 -75 -51 -131.5t-149 -56.5zM444 1972q55 0 82.5 36.5t27.5 79.5
q0 44 -27.5 80t-82.5 36q-53 0 -80 -36t-27 -80q0 -43 27 -79.5t80 -36.5z" />
    <glyph glyph-name="AE" unicode="&#xc6;" horiz-adv-x="1190" 
d="M66 0l353 1760h686v-172h-302v-602h285v-174h-285v-640h306v-172h-513v336h-267l-65 -336h-198zM359 497h237v1093l-26 -1z" />
    <glyph glyph-name="Ccedilla" unicode="&#xc7;" horiz-adv-x="918" 
d="M470 -21q-128 0 -204 62.5t-109 183.5t-33 294v733q0 116 15 212.5t53.5 167t107.5 109t177 38.5q103 0 168 -36.5t101 -104t49.5 -160t13.5 -204.5v-195h-203v196q0 164 -23.5 245.5t-105.5 81.5q-87 0 -116.5 -83.5t-29.5 -242.5v-762q0 -128 11 -207.5t41.5 -115.5
t87.5 -36q83 0 109 84t26 276v195h205v-193q0 -176 -30.5 -296t-104.5 -181t-206 -61zM428 -617q-57 0 -117 18v98q95 0 144.5 20t68 52.5t18.5 69.5q0 68 -49 109t-111 54l40 196h69l12 -144q104 -43 153.5 -108t49.5 -133q0 -61 -34.5 -114t-96.5 -85.5t-147 -32.5z" />
    <glyph glyph-name="Egrave" unicode="&#xc8;" horiz-adv-x="755" 
d="M144 0v1760h526v-172h-319v-602h302v-172h-302v-642h323v-172h-530zM385 1900l-194 371h211l94 -371h-111z" />
    <glyph glyph-name="Eacute" unicode="&#xc9;" horiz-adv-x="755" 
d="M144 0v1760h526v-172h-319v-602h302v-172h-302v-642h323v-172h-530zM282 1900l94 371h211l-194 -371h-111z" />
    <glyph glyph-name="Ecircumflex" unicode="&#xca;" horiz-adv-x="755" 
d="M144 0v1760h526v-172h-319v-602h302v-172h-302v-642h323v-172h-530zM134 1900l154 292h232l153 -292h-183l-86 205l-86 -205h-184z" />
    <glyph glyph-name="Edieresis" unicode="&#xcb;" horiz-adv-x="755" 
d="M144 0v1760h526v-172h-319v-602h302v-172h-302v-642h323v-172h-530zM531 1900v178h230v-178h-230zM47 1900v178h230v-178h-230z" />
    <glyph glyph-name="Igrave" unicode="&#xcc;" horiz-adv-x="495" 
d="M144 0v1760h207v-1760h-207zM229 1900l-194 371h211l94 -371h-111z" />
    <glyph glyph-name="Iacute" unicode="&#xcd;" horiz-adv-x="495" 
d="M144 0v1760h207v-1760h-207zM126 1900l94 371h211l-194 -371h-111z" />
    <glyph glyph-name="Icircumflex" unicode="&#xce;" horiz-adv-x="495" 
d="M144 0v1760h207v-1760h-207zM-22 1900l154 292h232l153 -292h-183l-86 205l-86 -205h-184z" />
    <glyph glyph-name="Idieresis" unicode="&#xcf;" horiz-adv-x="495" 
d="M144 0v1760h207v-1760h-207zM375 1900v178h230v-178h-230zM-109 1900v178h230v-178h-230z" />
    <glyph glyph-name="Eth" unicode="&#xd0;" horiz-adv-x="954" 
d="M144 0v1760h331q138 0 215 -57.5t108 -164.5t31 -256l1 -773q0 -178 -35.5 -290.5t-115 -165.5t-211.5 -53h-324zM350 167h106q56 0 93 24.5t55.5 91.5t18.5 194v810q0 166 -39 237.5t-128 71.5h-106v-1429zM35 821v116h501v-116h-501z" />
    <glyph glyph-name="Ntilde" unicode="&#xd1;" horiz-adv-x="1014" 
d="M144 0v1760h156l408 -1198l-21 509v689h183v-1760h-152l-395 1208l12 -444v-764h-191zM654 1900q-44 0 -92 20.5t-94.5 41t-88.5 20.5q-16 0 -23 -2q-16 -4 -26.5 -18.5t-24.5 -40.5l-111 49q20 68 47.5 101.5t61 45t71.5 11.5q41 0 92.5 -18.5t98 -37t71.5 -18.5h4
q14 2 27 14t29 57l123 -28l-9 -37q-26 -100 -62.5 -130t-93.5 -30z" />
    <glyph glyph-name="Ograve" unicode="&#xd2;" horiz-adv-x="944" 
d="M474 -20q-132 0 -208.5 58t-109 175t-32.5 293v776q0 152 30 264t107 174t218 62q106 0 173 -35.5t103.5 -101t50.5 -157.5t14 -206v-776q0 -176 -31.5 -293t-107 -175t-207.5 -58zM474 158q57 0 87 32.5t41 108.5t11 205v790q0 158 -25 234t-109 76q-87 0 -117.5 -75.5
t-30.5 -233.5v-791q0 -130 11 -205.5t42 -108t90 -32.5zM453 1900l-194 371h211l94 -371h-111z" />
    <glyph glyph-name="Oacute" unicode="&#xd3;" horiz-adv-x="944" 
d="M474 -20q-132 0 -208.5 58t-109 175t-32.5 293v776q0 152 30 264t107 174t218 62q106 0 173 -35.5t103.5 -101t50.5 -157.5t14 -206v-776q0 -176 -31.5 -293t-107 -175t-207.5 -58zM474 158q57 0 87 32.5t41 108.5t11 205v790q0 158 -25 234t-109 76q-87 0 -117.5 -75.5
t-30.5 -233.5v-791q0 -130 11 -205.5t42 -108t90 -32.5zM350 1900l94 371h211l-194 -371h-111z" />
    <glyph glyph-name="Ocircumflex" unicode="&#xd4;" horiz-adv-x="944" 
d="M474 -20q-132 0 -208.5 58t-109 175t-32.5 293v776q0 152 30 264t107 174t218 62q106 0 173 -35.5t103.5 -101t50.5 -157.5t14 -206v-776q0 -176 -31.5 -293t-107 -175t-207.5 -58zM474 158q57 0 87 32.5t41 108.5t11 205v790q0 158 -25 234t-109 76q-87 0 -117.5 -75.5
t-30.5 -233.5v-791q0 -130 11 -205.5t42 -108t90 -32.5zM202 1900l154 292h232l153 -292h-183l-86 205l-86 -205h-184z" />
    <glyph glyph-name="Otilde" unicode="&#xd5;" horiz-adv-x="944" 
d="M474 -20q-132 0 -208.5 58t-109 175t-32.5 293v776q0 152 30 264t107 174t218 62q106 0 173 -35.5t103.5 -101t50.5 -157.5t14 -206v-776q0 -176 -31.5 -293t-107 -175t-207.5 -58zM474 158q57 0 87 32.5t41 108.5t11 205v790q0 158 -25 234t-109 76q-87 0 -117.5 -75.5
t-30.5 -233.5v-791q0 -130 11 -205.5t42 -108t90 -32.5zM619 1900q-44 0 -92 20.5t-94.5 41t-88.5 20.5q-16 0 -23 -2q-16 -4 -26.5 -18.5t-24.5 -40.5l-111 49q20 68 47.5 101.5t61 45t71.5 11.5q41 0 92.5 -18.5t98 -37t71.5 -18.5h4q14 2 27 14t29 57l123 -28l-9 -37
q-26 -100 -62.5 -130t-93.5 -30z" />
    <glyph glyph-name="Odieresis" unicode="&#xd6;" horiz-adv-x="944" 
d="M474 -20q-132 0 -208.5 58t-109 175t-32.5 293v776q0 152 30 264t107 174t218 62q106 0 173 -35.5t103.5 -101t50.5 -157.5t14 -206v-776q0 -176 -31.5 -293t-107 -175t-207.5 -58zM474 158q57 0 87 32.5t41 108.5t11 205v790q0 158 -25 234t-109 76q-87 0 -117.5 -75.5
t-30.5 -233.5v-791q0 -130 11 -205.5t42 -108t90 -32.5zM599 1900v178h230v-178h-230zM115 1900v178h230v-178h-230z" />
    <glyph glyph-name="multiply" unicode="&#xd7;" horiz-adv-x="710" 
d="M176 374l-100 104l176 177l-176 177l100 104l179 -178l179 178l100 -104l-176 -177l176 -177l-100 -104l-179 178z" />
    <glyph glyph-name="Oslash" unicode="&#xd8;" horiz-adv-x="900" 
d="M174 -206l-99 40l728 2072l107 -36zM474 -20q-132 0 -208.5 58t-109 175t-32.5 293v776q0 152 30 264t107 174t218 62q106 0 173 -35.5t103.5 -101t50.5 -157.5t14 -206v-776q0 -176 -31.5 -293t-107 -175t-207.5 -58zM474 158q57 0 87 32.5t41 108.5t11 205v790
q0 158 -25 234t-109 76q-87 0 -117.5 -75.5t-30.5 -233.5v-791q0 -130 11 -205.5t42 -108t90 -32.5z" />
    <glyph glyph-name="Ugrave" unicode="&#xd9;" horiz-adv-x="954" 
d="M479 -21q-130 0 -206.5 51.5t-109.5 156.5t-33 265v1308h207v-1303q0 -95 7 -163t37 -104t98 -36q69 0 98 36t35.5 103.5t6.5 162.5v1304h206v-1308q0 -160 -32 -265t-107.5 -156.5t-206.5 -51.5zM458 1900l-194 371h211l94 -371h-111z" />
    <glyph glyph-name="Uacute" unicode="&#xda;" horiz-adv-x="954" 
d="M479 -21q-130 0 -206.5 51.5t-109.5 156.5t-33 265v1308h207v-1303q0 -95 7 -163t37 -104t98 -36q69 0 98 36t35.5 103.5t6.5 162.5v1304h206v-1308q0 -160 -32 -265t-107.5 -156.5t-206.5 -51.5zM355 1900l94 371h211l-194 -371h-111z" />
    <glyph glyph-name="Ucircumflex" unicode="&#xdb;" horiz-adv-x="954" 
d="M479 -21q-130 0 -206.5 51.5t-109.5 156.5t-33 265v1308h207v-1303q0 -95 7 -163t37 -104t98 -36q69 0 98 36t35.5 103.5t6.5 162.5v1304h206v-1308q0 -160 -32 -265t-107.5 -156.5t-206.5 -51.5zM207 1900l154 292h232l153 -292h-183l-86 205l-86 -205h-184z" />
    <glyph glyph-name="Udieresis" unicode="&#xdc;" horiz-adv-x="954" 
d="M479 -21q-130 0 -206.5 51.5t-109.5 156.5t-33 265v1308h207v-1303q0 -95 7 -163t37 -104t98 -36q69 0 98 36t35.5 103.5t6.5 162.5v1304h206v-1308q0 -160 -32 -265t-107.5 -156.5t-206.5 -51.5zM604 1900v178h230v-178h-230zM120 1900v178h230v-178h-230z" />
    <glyph glyph-name="Yacute" unicode="&#xdd;" horiz-adv-x="827" 
d="M321 0v739l-306 1021h205l204 -715h4l177 715h207l-284 -1021v-739h-207zM292 1900l94 371h211l-194 -371h-111z" />
    <glyph glyph-name="Thorn" unicode="&#xde;" horiz-adv-x="927" 
d="M162 0v1760h206v-260h147q106 0 171.5 -36t100 -103t47.5 -162t13 -212v-24q0 -177 -28 -297.5t-99.5 -182t-204.5 -61.5h-147v-422h-206zM368 594h127q61 0 92 35t42.5 116.5t11.5 218.5v30q0 171 -26 256t-116 85h-131v-741z" />
    <glyph glyph-name="germandbls" unicode="&#xdf;" horiz-adv-x="981" 
d="M144 0v1417q0 91 12.5 159t46.5 113t99.5 67.5t171.5 22.5q133 0 211 -33t112 -111.5t34 -217.5v-197q0 -82 -15 -135.5t-50.5 -86t-97.5 -53.5q86 -20 134.5 -65t68.5 -124t20 -203v-77q0 -112 -11 -200.5t-45 -150t-101 -93.5t-180 -32h-104v168q102 0 153 16
t68.5 64.5t17.5 146.5v261q0 113 -48.5 154t-181.5 41v168q98 0 135 33.5t37 117.5v300q0 90 -31.5 123.5t-115.5 33.5q-73 0 -104.5 -33.5t-31.5 -123.5v-1470h-204z" />
    <glyph glyph-name="agrave" unicode="&#xe0;" horiz-adv-x="902" 
d="M370 -13q-136 0 -196 105.5t-61 292.5v146q0 99 34 164.5t96 109.5t146 79.5t184 75.5v116q0 96 -6 155.5t-30.5 87.5t-78.5 28q-53 0 -79.5 -28t-34.5 -88t-8 -156v-52h-204v43q0 96 12 178.5t46 143.5t99.5 95.5t172.5 34.5q102 0 164.5 -32.5t96 -95.5t45.5 -155.5
t12 -213.5v-1021h-206v130q-9 -30 -35 -63.5t-68 -56.5t-101 -23zM428 153q54 0 93 34.5t52 68.5v571q-77 -34 -126.5 -61.5t-77 -57.5t-38.5 -72t-11 -106v-139q0 -127 22 -182.5t86 -55.5zM432 1640l-194 371h211l94 -371h-111z" />
    <glyph glyph-name="aacute" unicode="&#xe1;" horiz-adv-x="902" 
d="M370 -13q-136 0 -196 105.5t-61 292.5v146q0 99 34 164.5t96 109.5t146 79.5t184 75.5v116q0 96 -6 155.5t-30.5 87.5t-78.5 28q-53 0 -79.5 -28t-34.5 -88t-8 -156v-52h-204v43q0 96 12 178.5t46 143.5t99.5 95.5t172.5 34.5q102 0 164.5 -32.5t96 -95.5t45.5 -155.5
t12 -213.5v-1021h-206v130q-9 -30 -35 -63.5t-68 -56.5t-101 -23zM428 153q54 0 93 34.5t52 68.5v571q-77 -34 -126.5 -61.5t-77 -57.5t-38.5 -72t-11 -106v-139q0 -127 22 -182.5t86 -55.5zM329 1640l94 371h211l-194 -371h-111z" />
    <glyph glyph-name="acircumflex" unicode="&#xe2;" horiz-adv-x="902" 
d="M370 -13q-136 0 -196 105.5t-61 292.5v146q0 99 34 164.5t96 109.5t146 79.5t184 75.5v116q0 96 -6 155.5t-30.5 87.5t-78.5 28q-53 0 -79.5 -28t-34.5 -88t-8 -156v-52h-204v43q0 96 12 178.5t46 143.5t99.5 95.5t172.5 34.5q102 0 164.5 -32.5t96 -95.5t45.5 -155.5
t12 -213.5v-1021h-206v130q-9 -30 -35 -63.5t-68 -56.5t-101 -23zM428 153q54 0 93 34.5t52 68.5v571q-77 -34 -126.5 -61.5t-77 -57.5t-38.5 -72t-11 -106v-139q0 -127 22 -182.5t86 -55.5zM181 1640l154 292h232l153 -292h-183l-86 205l-86 -205h-184z" />
    <glyph glyph-name="atilde" unicode="&#xe3;" horiz-adv-x="902" 
d="M370 -13q-136 0 -196 105.5t-61 292.5v146q0 99 34 164.5t96 109.5t146 79.5t184 75.5v116q0 96 -6 155.5t-30.5 87.5t-78.5 28q-53 0 -79.5 -28t-34.5 -88t-8 -156v-52h-204v43q0 96 12 178.5t46 143.5t99.5 95.5t172.5 34.5q102 0 164.5 -32.5t96 -95.5t45.5 -155.5
t12 -213.5v-1021h-206v130q-9 -30 -35 -63.5t-68 -56.5t-101 -23zM428 153q54 0 93 34.5t52 68.5v571q-77 -34 -126.5 -61.5t-77 -57.5t-38.5 -72t-11 -106v-139q0 -127 22 -182.5t86 -55.5zM598 1640q-44 0 -92 20.5t-94.5 41t-88.5 20.5q-16 0 -23 -2q-16 -4 -26.5 -18.5
t-24.5 -40.5l-111 49q20 68 47.5 101.5t61 45t71.5 11.5q41 0 92.5 -18.5t98 -37t71.5 -18.5h4q14 2 27 14t29 57l123 -28l-9 -37q-26 -100 -62.5 -130t-93.5 -30z" />
    <glyph glyph-name="adieresis" unicode="&#xe4;" horiz-adv-x="902" 
d="M370 -13q-136 0 -196 105.5t-61 292.5v146q0 99 34 164.5t96 109.5t146 79.5t184 75.5v116q0 96 -6 155.5t-30.5 87.5t-78.5 28q-53 0 -79.5 -28t-34.5 -88t-8 -156v-52h-204v43q0 96 12 178.5t46 143.5t99.5 95.5t172.5 34.5q102 0 164.5 -32.5t96 -95.5t45.5 -155.5
t12 -213.5v-1021h-206v130q-9 -30 -35 -63.5t-68 -56.5t-101 -23zM428 153q54 0 93 34.5t52 68.5v571q-77 -34 -126.5 -61.5t-77 -57.5t-38.5 -72t-11 -106v-139q0 -127 22 -182.5t86 -55.5zM578 1640v178h230v-178h-230zM94 1640v178h230v-178h-230z" />
    <glyph glyph-name="aring" unicode="&#xe5;" horiz-adv-x="902" 
d="M370 -13q-136 0 -196 105.5t-61 292.5v146q0 99 34 164.5t96 109.5t146 79.5t184 75.5v116q0 96 -6 155.5t-30.5 87.5t-78.5 28q-53 0 -79.5 -28t-34.5 -88t-8 -156v-52h-204v43q0 96 12 178.5t46 143.5t99.5 95.5t172.5 34.5q102 0 164.5 -32.5t96 -95.5t45.5 -155.5
t12 -213.5v-1021h-206v130q-9 -30 -35 -63.5t-68 -56.5t-101 -23zM428 153q54 0 93 34.5t52 68.5v571q-77 -34 -126.5 -61.5t-77 -57.5t-38.5 -72t-11 -106v-139q0 -127 22 -182.5t86 -55.5zM451 1640q-97 0 -148.5 56.5t-51.5 131.5q0 74 51.5 130.5t148.5 56.5
q98 0 149 -56.5t51 -130.5q0 -75 -51 -131.5t-149 -56.5zM451 1712q55 0 82.5 36.5t27.5 79.5q0 44 -27.5 80t-82.5 36q-53 0 -80 -36t-27 -80q0 -43 27 -79.5t80 -36.5z" />
    <glyph glyph-name="ae" unicode="&#xe6;" horiz-adv-x="1356" 
d="M925 -18q-98 0 -160.5 35.5t-94.5 97.5q-23 -29 -65 -59t-94.5 -49.5t-106.5 -19.5q-140 0 -209 106t-69 297v147q1 98 35 162t95.5 107.5t145.5 79.5t184 76v101q0 95 -6.5 158t-30.5 94.5t-79 31.5q-52 0 -78 -27.5t-34.5 -86.5t-8.5 -156v-54h-204v43q0 96 12 178.5
t46 143.5t99.5 95.5t172.5 34.5q86 0 137 -25t79 -75q36 49 93.5 74.5t140.5 25.5q103 0 166 -36t95.5 -101.5t43.5 -156t11 -198.5v-286h-449v-283q0 -102 8.5 -169.5t35.5 -101t83 -33.5q57 0 81.5 38t30 105.5t5.5 154.5v111h202v-60q0 -116 -9 -211.5t-39 -164.5
t-93.5 -106.5t-171.5 -37.5zM441 153q54 0 93 35t51 69v565q-78 -35 -127 -62t-76.5 -56.5t-38 -71t-10.5 -105.5v-136q0 -127 22 -182.5t86 -55.5zM792 889h244v184q0 90 -6 151.5t-29.5 93t-76.5 31.5q-59 0 -87.5 -36t-36.5 -101t-8 -152v-171z" />
    <glyph glyph-name="ccedilla" unicode="&#xe7;" horiz-adv-x="878" 
d="M459 -18q-109 0 -175.5 37t-101 106.5t-46.5 166t-12 214.5v502q0 150 25 265t98 180t217 65q100 0 161.5 -33t94 -95t44 -148t11.5 -191v-104h-202v132q0 86 -5.5 144.5t-28.5 88.5t-77 30q-57 0 -85 -32.5t-37.5 -93t-9.5 -143.5v-638q0 -93 8 -154.5t35 -92t83 -30.5
q54 0 78.5 32.5t31.5 94t7 146.5v145h202v-97q0 -111 -11 -202t-43.5 -157t-95.5 -102t-166 -36zM408 -617q-57 0 -117 18v98q95 0 144.5 20t68 52.5t18.5 69.5q0 68 -49 109t-111 54l40 196h69l12 -144q104 -43 153.5 -108t49.5 -133q0 -61 -34.5 -114t-96.5 -85.5
t-147 -32.5z" />
    <glyph glyph-name="egrave" unicode="&#xe8;" horiz-adv-x="881" 
d="M454 -18q-108 0 -173.5 37.5t-99.5 106.5t-45.5 165.5t-11.5 213.5v530q0 106 15 194.5t52 153t103 100t168 35.5q103 0 166 -36t95.5 -101.5t43.5 -156t11 -198.5v-283h-448v-299q0 -142 19.5 -216.5t106.5 -74.5q57 0 81.5 35.5t30 100t5.5 152.5v121h201v-64
q0 -117 -9.5 -212t-40.5 -163t-95.5 -104.5t-174.5 -36.5zM329 882h244v191q0 90 -6 151.5t-29 93t-76 31.5q-59 0 -87.5 -36t-37 -99.5t-8.5 -147.5v-184zM422 1640l-194 371h211l94 -371h-111z" />
    <glyph glyph-name="eacute" unicode="&#xe9;" horiz-adv-x="881" 
d="M454 -18q-108 0 -173.5 37.5t-99.5 106.5t-45.5 165.5t-11.5 213.5v530q0 106 15 194.5t52 153t103 100t168 35.5q103 0 166 -36t95.5 -101.5t43.5 -156t11 -198.5v-283h-448v-299q0 -142 19.5 -216.5t106.5 -74.5q57 0 81.5 35.5t30 100t5.5 152.5v121h201v-64
q0 -117 -9.5 -212t-40.5 -163t-95.5 -104.5t-174.5 -36.5zM329 882h244v191q0 90 -6 151.5t-29 93t-76 31.5q-59 0 -87.5 -36t-37 -99.5t-8.5 -147.5v-184zM319 1640l94 371h211l-194 -371h-111z" />
    <glyph glyph-name="ecircumflex" unicode="&#xea;" horiz-adv-x="881" 
d="M454 -18q-108 0 -173.5 37.5t-99.5 106.5t-45.5 165.5t-11.5 213.5v530q0 106 15 194.5t52 153t103 100t168 35.5q103 0 166 -36t95.5 -101.5t43.5 -156t11 -198.5v-283h-448v-299q0 -142 19.5 -216.5t106.5 -74.5q57 0 81.5 35.5t30 100t5.5 152.5v121h201v-64
q0 -117 -9.5 -212t-40.5 -163t-95.5 -104.5t-174.5 -36.5zM329 882h244v191q0 90 -6 151.5t-29 93t-76 31.5q-59 0 -87.5 -36t-37 -99.5t-8.5 -147.5v-184zM171 1640l154 292h232l153 -292h-183l-86 205l-86 -205h-184z" />
    <glyph glyph-name="edieresis" unicode="&#xeb;" horiz-adv-x="881" 
d="M454 -18q-108 0 -173.5 37.5t-99.5 106.5t-45.5 165.5t-11.5 213.5v530q0 106 15 194.5t52 153t103 100t168 35.5q103 0 166 -36t95.5 -101.5t43.5 -156t11 -198.5v-283h-448v-299q0 -142 19.5 -216.5t106.5 -74.5q57 0 81.5 35.5t30 100t5.5 152.5v121h201v-64
q0 -117 -9.5 -212t-40.5 -163t-95.5 -104.5t-174.5 -36.5zM329 882h244v191q0 90 -6 151.5t-29 93t-76 31.5q-59 0 -87.5 -36t-37 -99.5t-8.5 -147.5v-184zM568 1640v178h230v-178h-230zM84 1640v178h230v-178h-230z" />
    <glyph glyph-name="igrave" unicode="&#xec;" horiz-adv-x="504" 
d="M149 0v1500h206v-1500h-206zM233 1640l-194 371h211l94 -371h-111z" />
    <glyph glyph-name="iacute" unicode="&#xed;" horiz-adv-x="504" 
d="M149 0v1500h206v-1500h-206zM130 1640l94 371h211l-194 -371h-111z" />
    <glyph glyph-name="icircumflex" unicode="&#xee;" horiz-adv-x="504" 
d="M149 0v1500h206v-1500h-206zM-18 1640l154 292h232l153 -292h-183l-86 205l-86 -205h-184z" />
    <glyph glyph-name="idieresis" unicode="&#xef;" horiz-adv-x="504" 
d="M149 0v1500h206v-1500h-206zM379 1640v178h230v-178h-230zM-105 1640v178h230v-178h-230z" />
    <glyph glyph-name="eth" unicode="&#xf0;" horiz-adv-x="968" 
d="M461 -20q-139 0 -216.5 55t-109 162.5t-31.5 264.5v109q0 188 31 306.5t104.5 173t198.5 50.5q51 -1 97.5 -20.5t76.5 -55.5q0 5 -1.5 40t-5 85t-8 103t-10 95t-12.5 59l-217 -126l-59 118l208 121q-49 56 -110 82t-115 33l67 144q98 -4 185 -42.5t149 -116.5l200 115
l59 -118l-189 -110q13 -26 23.5 -88.5t19 -141t14.5 -156t9 -135.5t3 -77v-393q0 -161 -28 -281.5t-105.5 -187.5t-227.5 -67zM460 158q94 0 125 77t31 246v373q-10 21 -54 47t-108 26q-58 0 -89 -33.5t-42.5 -110t-11.5 -205.5v-138q0 -112 13 -173.5t45.5 -85t90.5 -23.5z
" />
    <glyph glyph-name="ntilde" unicode="&#xf1;" horiz-adv-x="968" 
d="M143 0v1500h205v-159q20 70 85.5 124t156.5 54q113 0 176 -80t63 -243v-1196h-205v1195q0 80 -36 116t-92 36q-41 0 -75 -18t-53.5 -56t-19.5 -98v-1175h-205zM631 1640q-44 0 -92 20.5t-94.5 41t-88.5 20.5q-16 0 -23 -2q-16 -4 -26.5 -18.5t-24.5 -40.5l-111 49
q20 68 47.5 101.5t61 45t71.5 11.5q41 0 92.5 -18.5t98 -37t71.5 -18.5h4q14 2 27 14t29 57l123 -28l-9 -37q-26 -100 -62.5 -130t-93.5 -30z" />
    <glyph glyph-name="ograve" unicode="&#xf2;" horiz-adv-x="914" 
d="M459 -18q-106 0 -172 36.5t-101.5 104t-48.5 162t-13 211.5v531q0 141 27 252t99.5 175t208.5 64q102 0 167 -36.5t101 -103t49.5 -156t13.5 -195.5v-531q0 -115 -12 -209t-46.5 -162.5t-100 -105.5t-172.5 -37zM459 153q54 0 80.5 36t35.5 100.5t9 149.5v629
q0 84 -9 146.5t-36 97.5t-80 35q-56 0 -84 -35t-36.5 -97.5t-8.5 -146.5v-629q0 -85 8.5 -149.5t36.5 -100.5t84 -36zM438 1640l-194 371h211l94 -371h-111z" />
    <glyph glyph-name="oacute" unicode="&#xf3;" horiz-adv-x="914" 
d="M459 -18q-106 0 -172 36.5t-101.5 104t-48.5 162t-13 211.5v531q0 141 27 252t99.5 175t208.5 64q102 0 167 -36.5t101 -103t49.5 -156t13.5 -195.5v-531q0 -115 -12 -209t-46.5 -162.5t-100 -105.5t-172.5 -37zM459 153q54 0 80.5 36t35.5 100.5t9 149.5v629
q0 84 -9 146.5t-36 97.5t-80 35q-56 0 -84 -35t-36.5 -97.5t-8.5 -146.5v-629q0 -85 8.5 -149.5t36.5 -100.5t84 -36zM335 1640l94 371h211l-194 -371h-111z" />
    <glyph glyph-name="ocircumflex" unicode="&#xf4;" horiz-adv-x="914" 
d="M459 -18q-106 0 -172 36.5t-101.5 104t-48.5 162t-13 211.5v531q0 141 27 252t99.5 175t208.5 64q102 0 167 -36.5t101 -103t49.5 -156t13.5 -195.5v-531q0 -115 -12 -209t-46.5 -162.5t-100 -105.5t-172.5 -37zM459 153q54 0 80.5 36t35.5 100.5t9 149.5v629
q0 84 -9 146.5t-36 97.5t-80 35q-56 0 -84 -35t-36.5 -97.5t-8.5 -146.5v-629q0 -85 8.5 -149.5t36.5 -100.5t84 -36zM187 1640l154 292h232l153 -292h-183l-86 205l-86 -205h-184z" />
    <glyph glyph-name="otilde" unicode="&#xf5;" horiz-adv-x="914" 
d="M459 -18q-106 0 -172 36.5t-101.5 104t-48.5 162t-13 211.5v531q0 141 27 252t99.5 175t208.5 64q102 0 167 -36.5t101 -103t49.5 -156t13.5 -195.5v-531q0 -115 -12 -209t-46.5 -162.5t-100 -105.5t-172.5 -37zM459 153q54 0 80.5 36t35.5 100.5t9 149.5v629
q0 84 -9 146.5t-36 97.5t-80 35q-56 0 -84 -35t-36.5 -97.5t-8.5 -146.5v-629q0 -85 8.5 -149.5t36.5 -100.5t84 -36zM604 1640q-44 0 -92 20.5t-94.5 41t-88.5 20.5q-16 0 -23 -2q-16 -4 -26.5 -18.5t-24.5 -40.5l-111 49q20 68 47.5 101.5t61 45t71.5 11.5
q41 0 92.5 -18.5t98 -37t71.5 -18.5h4q14 2 27 14t29 57l123 -28l-9 -37q-26 -100 -62.5 -130t-93.5 -30z" />
    <glyph glyph-name="odieresis" unicode="&#xf6;" horiz-adv-x="914" 
d="M459 -18q-106 0 -172 36.5t-101.5 104t-48.5 162t-13 211.5v531q0 141 27 252t99.5 175t208.5 64q102 0 167 -36.5t101 -103t49.5 -156t13.5 -195.5v-531q0 -115 -12 -209t-46.5 -162.5t-100 -105.5t-172.5 -37zM459 153q54 0 80.5 36t35.5 100.5t9 149.5v629
q0 84 -9 146.5t-36 97.5t-80 35q-56 0 -84 -35t-36.5 -97.5t-8.5 -146.5v-629q0 -85 8.5 -149.5t36.5 -100.5t84 -36zM584 1640v178h230v-178h-230zM100 1640v178h230v-178h-230z" />
    <glyph glyph-name="divide" unicode="&#xf7;" horiz-adv-x="804" 
d="M94 671v167h616v-167h-616zM303 197v298h198v-298h-198zM303 1016v298h198v-298h-198z" />
    <glyph glyph-name="oslash" unicode="&#xf8;" horiz-adv-x="879" 
d="M258 -173l-100 28l509 1817l101 -28zM459 -18q-106 0 -172 36.5t-101.5 104t-48.5 162t-13 211.5v531q0 141 27 252t99.5 175t208.5 64q102 0 167 -36.5t101 -103t49.5 -156t13.5 -195.5v-531q0 -115 -12 -209t-46.5 -162.5t-100 -105.5t-172.5 -37zM459 153
q54 0 80.5 36t35.5 100.5t9 149.5v629q0 84 -9 146.5t-36 97.5t-80 35q-56 0 -84 -35t-36.5 -97.5t-8.5 -146.5v-629q0 -85 8.5 -149.5t36.5 -100.5t84 -36z" />
    <glyph glyph-name="ugrave" unicode="&#xf9;" horiz-adv-x="962" 
d="M386 -20q-67 0 -124 33t-92 106.5t-35 192.5v1188h205v-1165q0 -87 31 -132t98 -45q74 0 109.5 51.5t35.5 130.5v1160h206v-1500h-206v153q-22 -70 -79 -121.5t-149 -51.5zM462 1640l-194 371h211l94 -371h-111z" />
    <glyph glyph-name="uacute" unicode="&#xfa;" horiz-adv-x="962" 
d="M386 -20q-67 0 -124 33t-92 106.5t-35 192.5v1188h205v-1165q0 -87 31 -132t98 -45q74 0 109.5 51.5t35.5 130.5v1160h206v-1500h-206v153q-22 -70 -79 -121.5t-149 -51.5zM359 1640l94 371h211l-194 -371h-111z" />
    <glyph glyph-name="ucircumflex" unicode="&#xfb;" horiz-adv-x="962" 
d="M386 -20q-67 0 -124 33t-92 106.5t-35 192.5v1188h205v-1165q0 -87 31 -132t98 -45q74 0 109.5 51.5t35.5 130.5v1160h206v-1500h-206v153q-22 -70 -79 -121.5t-149 -51.5zM211 1640l154 292h232l153 -292h-183l-86 205l-86 -205h-184z" />
    <glyph glyph-name="udieresis" unicode="&#xfc;" horiz-adv-x="962" 
d="M386 -20q-67 0 -124 33t-92 106.5t-35 192.5v1188h205v-1165q0 -87 31 -132t98 -45q74 0 109.5 51.5t35.5 130.5v1160h206v-1500h-206v153q-22 -70 -79 -121.5t-149 -51.5zM608 1640v178h230v-178h-230zM124 1640v178h230v-178h-230z" />
    <glyph glyph-name="yacute" unicode="&#xfd;" horiz-adv-x="786" 
d="M104 -251v155h71q44 0 76.5 4.5t39.5 19.5q12 16 9.5 50.5t-8.5 74.5l-245 1447h199l108 -780l44 -406h18l39 406l98 780h198l-249 -1529q-12 -81 -30 -130t-55.5 -70.5t-111.5 -21.5h-201zM271 1640l94 371h211l-194 -371h-111z" />
    <glyph glyph-name="thorn" unicode="&#xfe;" horiz-adv-x="939" 
d="M147 -274v2053h206v-404q30 74 87.5 106t118.5 32q109 0 163.5 -63.5t73 -172.5t18.5 -247v-543q0 -142 -21.5 -256.5t-83 -181.5t-183.5 -67q-57 0 -103 35.5t-70 82.5v-374h-206zM487 155q75 1 98 74.5t23 230.5v605q0 83 -7 146t-31.5 98.5t-77.5 35.5
q-43 0 -74.5 -20t-48 -80t-16.5 -180v-613q0 -149 25 -223t109 -74z" />
    <glyph glyph-name="ydieresis" unicode="&#xff;" horiz-adv-x="786" 
d="M104 -251v155h71q44 0 76.5 4.5t39.5 19.5q12 16 9.5 50.5t-8.5 74.5l-245 1447h199l108 -780l44 -406h18l39 406l98 780h198l-249 -1529q-12 -81 -30 -130t-55.5 -70.5t-111.5 -21.5h-201zM520 1640v178h230v-178h-230zM36 1640v178h230v-178h-230z" />
    <glyph glyph-name="Amacron" unicode="&#x100;" horiz-adv-x="907" 
d="M50 0l267 1760h249l291 -1760h-195l-50 336h-319l-46 -336h-197zM316 504h270l-139 930h-3zM186 1900v142h516v-142h-516z" />
    <glyph glyph-name="amacron" unicode="&#x101;" horiz-adv-x="902" 
d="M370 -13q-136 0 -196 105.5t-61 292.5v146q0 99 34 164.5t96 109.5t146 79.5t184 75.5v116q0 96 -6 155.5t-30.5 87.5t-78.5 28q-53 0 -79.5 -28t-34.5 -88t-8 -156v-52h-204v43q0 96 12 178.5t46 143.5t99.5 95.5t172.5 34.5q102 0 164.5 -32.5t96 -95.5t45.5 -155.5
t12 -213.5v-1021h-206v130q-9 -30 -35 -63.5t-68 -56.5t-101 -23zM428 153q54 0 93 34.5t52 68.5v571q-77 -34 -126.5 -61.5t-77 -57.5t-38.5 -72t-11 -106v-139q0 -127 22 -182.5t86 -55.5zM193 1640v142h516v-142h-516z" />
    <glyph glyph-name="Abreve" unicode="&#x102;" horiz-adv-x="907" 
d="M50 0l267 1760h249l291 -1760h-195l-50 336h-319l-46 -336h-197zM316 504h270l-139 930h-3zM443 1900q-115 0 -174.5 58.5t-59.5 165.5v15h106q0 -75 40 -98t90 -23q49 0 88.5 22t39.5 99h106v-13q0 -107 -58 -166.5t-178 -59.5z" />
    <glyph glyph-name="abreve" unicode="&#x103;" horiz-adv-x="902" 
d="M370 -13q-136 0 -196 105.5t-61 292.5v146q0 99 34 164.5t96 109.5t146 79.5t184 75.5v116q0 96 -6 155.5t-30.5 87.5t-78.5 28q-53 0 -79.5 -28t-34.5 -88t-8 -156v-52h-204v43q0 96 12 178.5t46 143.5t99.5 95.5t172.5 34.5q102 0 164.5 -32.5t96 -95.5t45.5 -155.5
t12 -213.5v-1021h-206v130q-9 -30 -35 -63.5t-68 -56.5t-101 -23zM428 153q54 0 93 34.5t52 68.5v571q-77 -34 -126.5 -61.5t-77 -57.5t-38.5 -72t-11 -106v-139q0 -127 22 -182.5t86 -55.5zM450 1640q-115 0 -174.5 58.5t-59.5 165.5v15h106q0 -75 40 -98t90 -23
q49 0 88.5 22t39.5 99h106v-13q0 -107 -58 -166.5t-178 -59.5z" />
    <glyph glyph-name="Aogonek" unicode="&#x104;" horiz-adv-x="907" 
d="M50 0l267 1760h249l291 -1760h-195l-50 336h-319l-46 -336h-197zM316 504h270l-139 930h-3zM723 -626q-91 0 -151 30t-89.5 82t-29.5 118q0 101 70 211t203 185h85q-89 -88 -144.5 -186.5t-55.5 -178.5q0 -61 38 -96t111 -35q52 0 90 9.5l42 10.5v-115
q-17 -10 -67.5 -22.5t-101.5 -12.5z" />
    <glyph glyph-name="aogonek" unicode="&#x105;" horiz-adv-x="902" 
d="M370 -13q-136 0 -196 105.5t-61 292.5v146q0 99 34 164.5t96 109.5t146 79.5t184 75.5v116q0 96 -6 155.5t-30.5 87.5t-78.5 28q-53 0 -79.5 -28t-34.5 -88t-8 -156v-52h-204v43q0 96 12 178.5t46 143.5t99.5 95.5t172.5 34.5q102 0 164.5 -32.5t96 -95.5t45.5 -155.5
t12 -213.5v-1021h-206v130q-9 -30 -35 -63.5t-68 -56.5t-101 -23zM428 153q54 0 93 34.5t52 68.5v571q-77 -34 -126.5 -61.5t-77 -57.5t-38.5 -72t-11 -106v-139q0 -127 22 -182.5t86 -55.5zM644 -626q-91 0 -151 30t-89.5 82t-29.5 118q0 101 70 211t203 185h85
q-89 -88 -144.5 -186.5t-55.5 -178.5q0 -61 38 -96t111 -35q52 0 90 9.5l42 10.5v-115q-17 -10 -67.5 -22.5t-101.5 -12.5z" />
    <glyph glyph-name="Cacute" unicode="&#x106;" horiz-adv-x="918" 
d="M470 -21q-128 0 -204 62.5t-109 183.5t-33 294v733q0 116 15 212.5t53.5 167t107.5 109t177 38.5q103 0 168 -36.5t101 -104t49.5 -160t13.5 -204.5v-195h-203v196q0 164 -23.5 245.5t-105.5 81.5q-87 0 -116.5 -83.5t-29.5 -242.5v-762q0 -128 11 -207.5t41.5 -115.5
t87.5 -36q83 0 109 84t26 276v195h205v-193q0 -176 -30.5 -296t-104.5 -181t-206 -61zM337 1900l94 371h211l-194 -371h-111z" />
    <glyph glyph-name="cacute" unicode="&#x107;" horiz-adv-x="878" 
d="M459 -18q-109 0 -175.5 37t-101 106.5t-46.5 166t-12 214.5v502q0 150 25 265t98 180t217 65q100 0 161.5 -33t94 -95t44 -148t11.5 -191v-104h-202v132q0 86 -5.5 144.5t-28.5 88.5t-77 30q-57 0 -85 -32.5t-37.5 -93t-9.5 -143.5v-638q0 -93 8 -154.5t35 -92t83 -30.5
q54 0 78.5 32.5t31.5 94t7 146.5v145h202v-97q0 -111 -11 -202t-43.5 -157t-95.5 -102t-166 -36zM317 1640l94 371h211l-194 -371h-111z" />
    <glyph glyph-name="Ccircumflex" unicode="&#x108;" horiz-adv-x="918" 
d="M470 -21q-128 0 -204 62.5t-109 183.5t-33 294v733q0 116 15 212.5t53.5 167t107.5 109t177 38.5q103 0 168 -36.5t101 -104t49.5 -160t13.5 -204.5v-195h-203v196q0 164 -23.5 245.5t-105.5 81.5q-87 0 -116.5 -83.5t-29.5 -242.5v-762q0 -128 11 -207.5t41.5 -115.5
t87.5 -36q83 0 109 84t26 276v195h205v-193q0 -176 -30.5 -296t-104.5 -181t-206 -61zM189 1900l154 292h232l153 -292h-183l-86 205l-86 -205h-184z" />
    <glyph glyph-name="ccircumflex" unicode="&#x109;" horiz-adv-x="878" 
d="M459 -18q-109 0 -175.5 37t-101 106.5t-46.5 166t-12 214.5v502q0 150 25 265t98 180t217 65q100 0 161.5 -33t94 -95t44 -148t11.5 -191v-104h-202v132q0 86 -5.5 144.5t-28.5 88.5t-77 30q-57 0 -85 -32.5t-37.5 -93t-9.5 -143.5v-638q0 -93 8 -154.5t35 -92t83 -30.5
q54 0 78.5 32.5t31.5 94t7 146.5v145h202v-97q0 -111 -11 -202t-43.5 -157t-95.5 -102t-166 -36zM169 1640l154 292h232l153 -292h-183l-86 205l-86 -205h-184z" />
    <glyph glyph-name="Cdotaccent" unicode="&#x10a;" horiz-adv-x="918" 
d="M470 -21q-128 0 -204 62.5t-109 183.5t-33 294v733q0 116 15 212.5t53.5 167t107.5 109t177 38.5q103 0 168 -36.5t101 -104t49.5 -160t13.5 -204.5v-195h-203v196q0 164 -23.5 245.5t-105.5 81.5q-87 0 -116.5 -83.5t-29.5 -242.5v-762q0 -128 11 -207.5t41.5 -115.5
t87.5 -36q83 0 109 84t26 276v195h205v-193q0 -176 -30.5 -296t-104.5 -181t-206 -61zM356 1898v188h206v-188h-206z" />
    <glyph glyph-name="cdotaccent" unicode="&#x10b;" horiz-adv-x="878" 
d="M459 -18q-109 0 -175.5 37t-101 106.5t-46.5 166t-12 214.5v502q0 150 25 265t98 180t217 65q100 0 161.5 -33t94 -95t44 -148t11.5 -191v-104h-202v132q0 86 -5.5 144.5t-28.5 88.5t-77 30q-57 0 -85 -32.5t-37.5 -93t-9.5 -143.5v-638q0 -93 8 -154.5t35 -92t83 -30.5
q54 0 78.5 32.5t31.5 94t7 146.5v145h202v-97q0 -111 -11 -202t-43.5 -157t-95.5 -102t-166 -36zM336 1638v188h206v-188h-206z" />
    <glyph glyph-name="Ccaron" unicode="&#x10c;" horiz-adv-x="918" 
d="M470 -21q-128 0 -204 62.5t-109 183.5t-33 294v733q0 116 15 212.5t53.5 167t107.5 109t177 38.5q103 0 168 -36.5t101 -104t49.5 -160t13.5 -204.5v-195h-203v196q0 164 -23.5 245.5t-105.5 81.5q-87 0 -116.5 -83.5t-29.5 -242.5v-762q0 -128 11 -207.5t41.5 -115.5
t87.5 -36q83 0 109 84t26 276v195h205v-193q0 -176 -30.5 -296t-104.5 -181t-206 -61zM343 1900l-154 294h184l86 -205l86 205h183l-153 -294h-232z" />
    <glyph glyph-name="ccaron" unicode="&#x10d;" horiz-adv-x="878" 
d="M459 -18q-109 0 -175.5 37t-101 106.5t-46.5 166t-12 214.5v502q0 150 25 265t98 180t217 65q100 0 161.5 -33t94 -95t44 -148t11.5 -191v-104h-202v132q0 86 -5.5 144.5t-28.5 88.5t-77 30q-57 0 -85 -32.5t-37.5 -93t-9.5 -143.5v-638q0 -93 8 -154.5t35 -92t83 -30.5
q54 0 78.5 32.5t31.5 94t7 146.5v145h202v-97q0 -111 -11 -202t-43.5 -157t-95.5 -102t-166 -36zM323 1640l-154 294h184l86 -205l86 205h183l-153 -294h-232z" />
    <glyph glyph-name="Dcaron" unicode="&#x10e;" horiz-adv-x="954" 
d="M144 0v1760h331q138 0 215 -57.5t108 -164.5t31 -256l1 -773q0 -178 -35.5 -290.5t-115 -165.5t-211.5 -53h-324zM350 167h106q56 0 93 24.5t55.5 91.5t18.5 194v810q0 166 -39 237.5t-128 71.5h-106v-1429zM321 1900l-154 294h184l86 -205l86 205h183l-153 -294h-232z
" />
    <glyph glyph-name="dcaron" unicode="&#x10f;" horiz-adv-x="1126" 
d="M379 -13q-111 0 -165.5 65t-72 176.5t-17.5 251.5v567q0 134 24.5 240.5t87 168.5t174.5 62q59 0 105.5 -34t70.5 -84v379h206v-1779h-206v126q-30 -74 -85 -106.5t-122 -32.5zM450 154q47 0 77.5 23.5t45 87.5t14.5 183v602q0 146 -24.5 221t-107.5 75
q-75 -1 -100 -73.5t-25 -227.5v-606q0 -87 8.5 -151t34.5 -99t77 -35zM951 1264l49 288h-108v227h234v-218l-85 -297h-90z" />
    <glyph glyph-name="Dcroat" unicode="&#x110;" horiz-adv-x="954" 
d="M144 0v1760h331q138 0 215 -57.5t108 -164.5t31 -256l1 -773q0 -178 -35.5 -290.5t-115 -165.5t-211.5 -53h-324zM350 167h106q56 0 93 24.5t55.5 91.5t18.5 194v810q0 166 -39 237.5t-128 71.5h-106v-1429zM35 821v116h501v-116h-501z" />
    <glyph glyph-name="dcroat" unicode="&#x111;" horiz-adv-x="939" 
d="M379 -13q-111 0 -165.5 65t-72 176.5t-17.5 251.5v567q0 134 24.5 240.5t87 168.5t174.5 62q59 0 105.5 -34t70.5 -84v379h206v-1779h-206v126q-30 -74 -85 -106.5t-122 -32.5zM450 154q47 0 77.5 23.5t45 87.5t14.5 183v602q0 146 -24.5 221t-107.5 75
q-75 -1 -100 -73.5t-25 -227.5v-606q0 -87 8.5 -151t34.5 -99t77 -35zM354 1580v116h501v-116h-501z" />
    <glyph glyph-name="Emacron" unicode="&#x112;" horiz-adv-x="755" 
d="M144 0v1760h526v-172h-319v-602h302v-172h-302v-642h323v-172h-530zM146 1900v142h516v-142h-516z" />
    <glyph glyph-name="emacron" unicode="&#x113;" horiz-adv-x="881" 
d="M454 -18q-108 0 -173.5 37.5t-99.5 106.5t-45.5 165.5t-11.5 213.5v530q0 106 15 194.5t52 153t103 100t168 35.5q103 0 166 -36t95.5 -101.5t43.5 -156t11 -198.5v-283h-448v-299q0 -142 19.5 -216.5t106.5 -74.5q57 0 81.5 35.5t30 100t5.5 152.5v121h201v-64
q0 -117 -9.5 -212t-40.5 -163t-95.5 -104.5t-174.5 -36.5zM329 882h244v191q0 90 -6 151.5t-29 93t-76 31.5q-59 0 -87.5 -36t-37 -99.5t-8.5 -147.5v-184zM183 1640v142h516v-142h-516z" />
    <glyph glyph-name="Ebreve" unicode="&#x114;" horiz-adv-x="755" 
d="M144 0v1760h526v-172h-319v-602h302v-172h-302v-642h323v-172h-530zM403 1900q-115 0 -174.5 58.5t-59.5 165.5v15h106q0 -75 40 -98t90 -23q49 0 88.5 22t39.5 99h106v-13q0 -107 -58 -166.5t-178 -59.5z" />
    <glyph glyph-name="ebreve" unicode="&#x115;" horiz-adv-x="881" 
d="M454 -18q-108 0 -173.5 37.5t-99.5 106.5t-45.5 165.5t-11.5 213.5v530q0 106 15 194.5t52 153t103 100t168 35.5q103 0 166 -36t95.5 -101.5t43.5 -156t11 -198.5v-283h-448v-299q0 -142 19.5 -216.5t106.5 -74.5q57 0 81.5 35.5t30 100t5.5 152.5v121h201v-64
q0 -117 -9.5 -212t-40.5 -163t-95.5 -104.5t-174.5 -36.5zM329 882h244v191q0 90 -6 151.5t-29 93t-76 31.5q-59 0 -87.5 -36t-37 -99.5t-8.5 -147.5v-184zM440 1640q-115 0 -174.5 58.5t-59.5 165.5v15h106q0 -75 40 -98t90 -23q49 0 88.5 22t39.5 99h106v-13
q0 -107 -58 -166.5t-178 -59.5z" />
    <glyph glyph-name="Edotaccent" unicode="&#x116;" horiz-adv-x="755" 
d="M144 0v1760h526v-172h-319v-602h302v-172h-302v-642h323v-172h-530zM301 1898v188h206v-188h-206z" />
    <glyph glyph-name="edotaccent" unicode="&#x117;" horiz-adv-x="881" 
d="M454 -18q-108 0 -173.5 37.5t-99.5 106.5t-45.5 165.5t-11.5 213.5v530q0 106 15 194.5t52 153t103 100t168 35.5q103 0 166 -36t95.5 -101.5t43.5 -156t11 -198.5v-283h-448v-299q0 -142 19.5 -216.5t106.5 -74.5q57 0 81.5 35.5t30 100t5.5 152.5v121h201v-64
q0 -117 -9.5 -212t-40.5 -163t-95.5 -104.5t-174.5 -36.5zM329 882h244v191q0 90 -6 151.5t-29 93t-76 31.5q-59 0 -87.5 -36t-37 -99.5t-8.5 -147.5v-184zM338 1638v188h206v-188h-206z" />
    <glyph glyph-name="Eogonek" unicode="&#x118;" horiz-adv-x="755" 
d="M144 0v1760h526v-172h-319v-602h302v-172h-302v-642h323v-172h-530zM538 -626q-91 0 -151 30t-89.5 82t-29.5 118q0 101 70 211t203 185h85q-89 -88 -144.5 -186.5t-55.5 -178.5q0 -61 38 -96t111 -35q52 0 90 9.5l42 10.5v-115q-17 -10 -67.5 -22.5t-101.5 -12.5z" />
    <glyph glyph-name="eogonek" unicode="&#x119;" horiz-adv-x="881" 
d="M454 -18q-108 0 -173.5 37.5t-99.5 106.5t-45.5 165.5t-11.5 213.5v530q0 106 15 194.5t52 153t103 100t168 35.5q103 0 166 -36t95.5 -101.5t43.5 -156t11 -198.5v-283h-448v-299q0 -142 19.5 -216.5t106.5 -74.5q57 0 81.5 35.5t30 100t5.5 152.5v121h201v-64
q0 -117 -9.5 -212t-40.5 -163t-95.5 -104.5t-174.5 -36.5zM329 882h244v191q0 90 -6 151.5t-29 93t-76 31.5q-59 0 -87.5 -36t-37 -99.5t-8.5 -147.5v-184zM480 -626q-91 0 -151 30t-89.5 82t-29.5 118q0 101 70 211t203 185h85q-89 -88 -144.5 -186.5t-55.5 -178.5
q0 -61 38 -96t111 -35q52 0 90 9.5l42 10.5v-115q-17 -10 -67.5 -22.5t-101.5 -12.5z" />
    <glyph glyph-name="Ecaron" unicode="&#x11a;" horiz-adv-x="755" 
d="M144 0v1760h526v-172h-319v-602h302v-172h-302v-642h323v-172h-530zM288 1900l-154 294h184l86 -205l86 205h183l-153 -294h-232z" />
    <glyph glyph-name="ecaron" unicode="&#x11b;" horiz-adv-x="881" 
d="M454 -18q-108 0 -173.5 37.5t-99.5 106.5t-45.5 165.5t-11.5 213.5v530q0 106 15 194.5t52 153t103 100t168 35.5q103 0 166 -36t95.5 -101.5t43.5 -156t11 -198.5v-283h-448v-299q0 -142 19.5 -216.5t106.5 -74.5q57 0 81.5 35.5t30 100t5.5 152.5v121h201v-64
q0 -117 -9.5 -212t-40.5 -163t-95.5 -104.5t-174.5 -36.5zM329 882h244v191q0 90 -6 151.5t-29 93t-76 31.5q-59 0 -87.5 -36t-37 -99.5t-8.5 -147.5v-184zM325 1640l-154 294h184l86 -205l86 205h183l-153 -294h-232z" />
    <glyph glyph-name="Gcircumflex" unicode="&#x11c;" horiz-adv-x="939" 
d="M441 -17q-153 0 -235 126t-82 415v738q0 116 16.5 210.5t56.5 163.5t109.5 106t175.5 37q110 0 175.5 -37.5t99.5 -106.5t45 -165t11 -212v-136h-200v229q0 128 -25.5 189.5t-105.5 61.5q-85 0 -118 -73t-33 -258v-740q0 -202 27.5 -289t117.5 -87q86 0 116.5 87.5
t30.5 292.5v229h-143v160h333v-924h-109l-28 136q-28 -74 -88.5 -113.5t-146.5 -39.5zM200 1900l154 292h232l153 -292h-183l-86 205l-86 -205h-184z" />
    <glyph glyph-name="gcircumflex" unicode="&#x11d;" horiz-adv-x="929" 
d="M446 -229q-103 -3 -185.5 23t-141.5 73l74 140q44 -30 104 -53t139 -21q70 2 108.5 52.5t38.5 135.5v143q-29 -74 -80 -99t-116 -25q-105 0 -162.5 61t-80 167t-22.5 240v430q0 137 26.5 246t88.5 172.5t168 61.5q64 -1 110.5 -32t67.5 -96v110h205v-1360
q0 -64 -15.5 -128t-53 -117.5t-104 -87t-169.5 -36.5zM466 303q40 0 66 24t38.5 89.5t12.5 188.5v463q0 137 -24.5 208t-102.5 71q-57 0 -84.5 -35.5t-35.5 -97.5t-8 -144v-467q0 -149 27 -224.5t111 -75.5zM195 1640l154 292h232l153 -292h-183l-86 205l-86 -205h-184z" />
    <glyph glyph-name="Gbreve" unicode="&#x11e;" horiz-adv-x="939" 
d="M441 -17q-153 0 -235 126t-82 415v738q0 116 16.5 210.5t56.5 163.5t109.5 106t175.5 37q110 0 175.5 -37.5t99.5 -106.5t45 -165t11 -212v-136h-200v229q0 128 -25.5 189.5t-105.5 61.5q-85 0 -118 -73t-33 -258v-740q0 -202 27.5 -289t117.5 -87q86 0 116.5 87.5
t30.5 292.5v229h-143v160h333v-924h-109l-28 136q-28 -74 -88.5 -113.5t-146.5 -39.5zM469 1900q-115 0 -174.5 58.5t-59.5 165.5v15h106q0 -75 40 -98t90 -23q49 0 88.5 22t39.5 99h106v-13q0 -107 -58 -166.5t-178 -59.5z" />
    <glyph glyph-name="gbreve" unicode="&#x11f;" horiz-adv-x="929" 
d="M446 -229q-103 -3 -185.5 23t-141.5 73l74 140q44 -30 104 -53t139 -21q70 2 108.5 52.5t38.5 135.5v143q-29 -74 -80 -99t-116 -25q-105 0 -162.5 61t-80 167t-22.5 240v430q0 137 26.5 246t88.5 172.5t168 61.5q64 -1 110.5 -32t67.5 -96v110h205v-1360
q0 -64 -15.5 -128t-53 -117.5t-104 -87t-169.5 -36.5zM466 303q40 0 66 24t38.5 89.5t12.5 188.5v463q0 137 -24.5 208t-102.5 71q-57 0 -84.5 -35.5t-35.5 -97.5t-8 -144v-467q0 -149 27 -224.5t111 -75.5zM464 1640q-115 0 -174.5 58.5t-59.5 165.5v15h106q0 -75 40 -98
t90 -23q49 0 88.5 22t39.5 99h106v-13q0 -107 -58 -166.5t-178 -59.5z" />
    <glyph glyph-name="Gdotaccent" unicode="&#x120;" horiz-adv-x="939" 
d="M441 -17q-153 0 -235 126t-82 415v738q0 116 16.5 210.5t56.5 163.5t109.5 106t175.5 37q110 0 175.5 -37.5t99.5 -106.5t45 -165t11 -212v-136h-200v229q0 128 -25.5 189.5t-105.5 61.5q-85 0 -118 -73t-33 -258v-740q0 -202 27.5 -289t117.5 -87q86 0 116.5 87.5
t30.5 292.5v229h-143v160h333v-924h-109l-28 136q-28 -74 -88.5 -113.5t-146.5 -39.5zM367 1898v188h206v-188h-206z" />
    <glyph glyph-name="gdotaccent" unicode="&#x121;" horiz-adv-x="929" 
d="M446 -229q-103 -3 -185.5 23t-141.5 73l74 140q44 -30 104 -53t139 -21q70 2 108.5 52.5t38.5 135.5v143q-29 -74 -80 -99t-116 -25q-105 0 -162.5 61t-80 167t-22.5 240v430q0 137 26.5 246t88.5 172.5t168 61.5q64 -1 110.5 -32t67.5 -96v110h205v-1360
q0 -64 -15.5 -128t-53 -117.5t-104 -87t-169.5 -36.5zM466 303q40 0 66 24t38.5 89.5t12.5 188.5v463q0 137 -24.5 208t-102.5 71q-57 0 -84.5 -35.5t-35.5 -97.5t-8 -144v-467q0 -149 27 -224.5t111 -75.5zM362 1638v188h206v-188h-206z" />
    <glyph glyph-name="uni0122" unicode="&#x122;" horiz-adv-x="939" 
d="M441 -17q-153 0 -235 126t-82 415v738q0 116 16.5 210.5t56.5 163.5t109.5 106t175.5 37q110 0 175.5 -37.5t99.5 -106.5t45 -165t11 -212v-136h-200v229q0 128 -25.5 189.5t-105.5 61.5q-85 0 -118 -73t-33 -258v-740q0 -202 27.5 -289t117.5 -87q86 0 116.5 87.5
t30.5 292.5v229h-143v160h333v-924h-109l-28 136q-28 -74 -88.5 -113.5t-146.5 -39.5zM412 -637l49 288h-108v227h234v-218l-85 -297h-90z" />
    <glyph glyph-name="uni0123" unicode="&#x123;" horiz-adv-x="929" 
d="M446 -229q-103 -3 -185.5 23t-141.5 73l74 140q44 -30 104 -53t139 -21q70 2 108.5 52.5t38.5 135.5v143q-29 -74 -80 -99t-116 -25q-105 0 -162.5 61t-80 167t-22.5 240v430q0 137 26.5 246t88.5 172.5t168 61.5q64 -1 110.5 -32t67.5 -96v110h205v-1360
q0 -64 -15.5 -128t-53 -117.5t-104 -87t-169.5 -36.5zM466 303q40 0 66 24t38.5 89.5t12.5 188.5v463q0 137 -24.5 208t-102.5 71q-57 0 -84.5 -35.5t-35.5 -97.5t-8 -144v-467q0 -149 27 -224.5t111 -75.5zM523 2101l-49 -288h108v-227h-234v218l85 297h90z" />
    <glyph glyph-name="Hcircumflex" unicode="&#x124;" horiz-adv-x="984" 
d="M144 0v1760h207v-753h282v753h207v-1760h-207v838h-282v-838h-207zM222 1900l154 292h232l153 -292h-183l-86 205l-86 -205h-184z" />
    <glyph glyph-name="hcircumflex" unicode="&#x125;" horiz-adv-x="969" 
d="M145 0v1779h205v-438q20 70 84.5 124t154.5 54q113 0 177 -80t64 -243v-1196h-205v1179q0 92 -33.5 127.5t-89.5 35.5q-41 0 -76 -19.5t-55.5 -61t-20.5 -107.5v-1154h-205zM-25 1919l154 292h232l153 -292h-183l-86 205l-86 -205h-184z" />
    <glyph glyph-name="Hbar" unicode="&#x126;" horiz-adv-x="984" 
d="M55 1398v106h896v-106h-896zM144 0v1760h207v-753h282v753h207v-1760h-207v838h-282v-838h-207z" />
    <glyph glyph-name="hbar" unicode="&#x127;" horiz-adv-x="969" 
d="M145 0v1779h205v-438q20 70 84.5 124t154.5 54q113 0 177 -80t64 -243v-1196h-205v1179q0 92 -33.5 127.5t-89.5 35.5q-41 0 -76 -19.5t-55.5 -61t-20.5 -107.5v-1154h-205zM64 1580v116h501v-116h-501z" />
    <glyph glyph-name="Itilde" unicode="&#x128;" horiz-adv-x="495" 
d="M144 0v1760h207v-1760h-207zM395 1900q-44 0 -92 20.5t-94.5 41t-88.5 20.5q-16 0 -23 -2q-16 -4 -26.5 -18.5t-24.5 -40.5l-111 49q20 68 47.5 101.5t61 45t71.5 11.5q41 0 92.5 -18.5t98 -37t71.5 -18.5h4q14 2 27 14t29 57l123 -28l-9 -37q-26 -100 -62.5 -130
t-93.5 -30z" />
    <glyph glyph-name="itilde" unicode="&#x129;" horiz-adv-x="504" 
d="M149 0v1500h206v-1500h-206zM399 1640q-44 0 -92 20.5t-94.5 41t-88.5 20.5q-16 0 -23 -2q-16 -4 -26.5 -18.5t-24.5 -40.5l-111 49q20 68 47.5 101.5t61 45t71.5 11.5q41 0 92.5 -18.5t98 -37t71.5 -18.5h4q14 2 27 14t29 57l123 -28l-9 -37q-26 -100 -62.5 -130
t-93.5 -30z" />
    <glyph glyph-name="Imacron" unicode="&#x12a;" horiz-adv-x="495" 
d="M144 0v1760h207v-1760h-207zM-10 1900v142h516v-142h-516z" />
    <glyph glyph-name="imacron" unicode="&#x12b;" horiz-adv-x="504" 
d="M149 0v1500h206v-1500h-206zM-6 1640v142h516v-142h-516z" />
    <glyph glyph-name="Ibreve" unicode="&#x12c;" horiz-adv-x="495" 
d="M144 0v1760h207v-1760h-207zM247 1900q-115 0 -174.5 58.5t-59.5 165.5v15h106q0 -75 40 -98t90 -23q49 0 88.5 22t39.5 99h106v-13q0 -107 -58 -166.5t-178 -59.5z" />
    <glyph glyph-name="ibreve" unicode="&#x12d;" horiz-adv-x="504" 
d="M149 0v1500h206v-1500h-206zM251 1640q-115 0 -174.5 58.5t-59.5 165.5v15h106q0 -75 40 -98t90 -23q49 0 88.5 22t39.5 99h106v-13q0 -107 -58 -166.5t-178 -59.5z" />
    <glyph glyph-name="Iogonek" unicode="&#x12e;" horiz-adv-x="495" 
d="M144 0v1760h207v-1760h-207zM215 -626q-91 0 -151 30t-89.5 82t-29.5 118q0 101 70 211t203 185h85q-89 -88 -144.5 -186.5t-55.5 -178.5q0 -61 38 -96t111 -35q52 0 90 9.5l42 10.5v-115q-17 -10 -67.5 -22.5t-101.5 -12.5z" />
    <glyph glyph-name="iogonek" unicode="&#x12f;" horiz-adv-x="504" 
d="M149 0v1500h206v-1500h-206zM149 1638v188h206v-188h-206zM239 -626q-91 0 -151 30t-89.5 82t-29.5 118q0 101 70 211t203 185h85q-89 -88 -144.5 -186.5t-55.5 -178.5q0 -61 38 -96t111 -35q52 0 90 9.5l42 10.5v-115q-17 -10 -67.5 -22.5t-101.5 -12.5z" />
    <glyph glyph-name="Idotaccent" unicode="&#x130;" horiz-adv-x="495" 
d="M144 0v1760h207v-1760h-207zM145 1898v188h206v-188h-206z" />
    <glyph glyph-name="dotlessi" unicode="&#x131;" horiz-adv-x="504" 
d="M149 0v1500h206v-1500h-206z" />
    <glyph glyph-name="IJ" unicode="&#x132;" horiz-adv-x="1371" 
d="M144 0v1760h207v-1760h-207zM907 -21q-167 0 -244.5 102.5t-77.5 307.5v230h202v-217q0 -67 5.5 -123t29.5 -90t79 -34t78.5 33t29 92.5t5.5 137.5v1342h207v-1334q0 -222 -78 -334.5t-236 -112.5z" />
    <glyph glyph-name="ij" unicode="&#x133;" horiz-adv-x="1024" 
d="M149 0v1500h206v-1500h-206zM149 1638v188h206v-188h-206zM704 -211q-48 0 -84.5 4t-53.5 7v144q10 -1 25.5 -2t32.5 -1q29 0 39.5 20.5t10.5 48.5v1490h205v-1480q0 -85 -25.5 -136t-65.5 -73t-84 -22zM675 1638v188h206v-188h-206z" />
    <glyph glyph-name="Jcircumflex" unicode="&#x134;" horiz-adv-x="876" 
d="M412 -21q-167 0 -244.5 102.5t-77.5 307.5v230h202v-217q0 -67 5.5 -123t29.5 -90t79 -34t78.5 33t29 92.5t5.5 137.5v1342h207v-1334q0 -222 -78 -334.5t-236 -112.5zM348 1900l154 292h232l153 -292h-183l-86 205l-86 -205h-184z" />
    <glyph glyph-name="jcircumflex" unicode="&#x135;" horiz-adv-x="520" 
d="M200 -211q-48 0 -84.5 4t-53.5 7v144q10 -1 25.5 -2t32.5 -1q29 0 39.5 20.5t10.5 48.5v1490h205v-1480q0 -85 -25.5 -136t-65.5 -73t-84 -22zM4 1640l154 292h232l153 -292h-183l-86 205l-86 -205h-184z" />
    <glyph glyph-name="uni0136" unicode="&#x136;" horiz-adv-x="909" 
d="M144 0v1760h207v-839l313 839h208l-328 -869l351 -891h-216l-326 842v-842h-209zM437 -637l49 288h-108v227h234v-218l-85 -297h-90z" />
    <glyph glyph-name="uni0137" unicode="&#x137;" horiz-adv-x="896" 
d="M149 0v1779h205v-992l295 713h207l-316 -741l333 -759h-211l-308 730v-730h-205zM390 -637l49 288h-108v227h234v-218l-85 -297h-90z" />
    <glyph glyph-name="kgreenlandic" unicode="&#x138;" horiz-adv-x="866" 
d="M147 0v1500h205v-713l295 713h207l-316 -741l333 -759h-211l-308 730v-730h-205z" />
    <glyph glyph-name="Lacute" unicode="&#x139;" horiz-adv-x="695" 
d="M144 0v1760h207v-1589h325v-171h-532zM136 1900l94 371h211l-194 -371h-111z" />
    <glyph glyph-name="lacute" unicode="&#x13a;" horiz-adv-x="503" 
d="M147 0v1779h205v-1779h-205zM130 1919l94 371h211l-194 -371h-111z" />
    <glyph glyph-name="uni013B" unicode="&#x13b;" horiz-adv-x="695" 
d="M144 0v1760h207v-1589h325v-171h-532zM340 -637l49 288h-108v227h234v-218l-85 -297h-90z" />
    <glyph glyph-name="uni013C" unicode="&#x13c;" horiz-adv-x="503" 
d="M147 0v1779h205v-1779h-205zM194 -637l49 288h-108v227h234v-218l-85 -297h-90z" />
    <glyph glyph-name="Lcaron" unicode="&#x13d;" horiz-adv-x="794" 
d="M144 0v1760h207v-1589h325v-171h-532zM619 1245l49 288h-108v227h234v-218l-85 -297h-90z" />
    <glyph glyph-name="lcaron" unicode="&#x13e;" horiz-adv-x="673" 
d="M147 0v1779h205v-1779h-205zM498 1264l49 288h-108v227h234v-218l-85 -297h-90z" />
    <glyph glyph-name="Ldot" unicode="&#x13f;" horiz-adv-x="755" 
d="M144 0v1760h207v-1589h325v-171h-532zM532 769v208h200v-208h-200z" />
    <glyph glyph-name="ldot" unicode="&#x140;" horiz-adv-x="633" 
d="M147 0v1779h205v-1779h-205zM469 726v208h200v-208h-200z" />
    <glyph glyph-name="Lslash" unicode="&#x141;" horiz-adv-x="748" 
d="M-1 764v152l555 223v-152zM144 0v1760h207v-1589h325v-171h-532z" />
    <glyph glyph-name="lslash" unicode="&#x142;" horiz-adv-x="676" 
d="M75 754v167l526 232v-167zM215 0v1779h205v-1779h-205z" />
    <glyph glyph-name="Nacute" unicode="&#x143;" horiz-adv-x="1014" 
d="M144 0v1760h156l408 -1198l-21 509v689h183v-1760h-152l-395 1208l12 -444v-764h-191zM385 1900l94 371h211l-194 -371h-111z" />
    <glyph glyph-name="nacute" unicode="&#x144;" horiz-adv-x="968" 
d="M143 0v1500h205v-159q20 70 85.5 124t156.5 54q113 0 176 -80t63 -243v-1196h-205v1195q0 80 -36 116t-92 36q-41 0 -75 -18t-53.5 -56t-19.5 -98v-1175h-205zM362 1640l94 371h211l-194 -371h-111z" />
    <glyph glyph-name="uni0145" unicode="&#x145;" horiz-adv-x="1014" 
d="M144 0v1760h156l408 -1198l-21 509v689h183v-1760h-152l-395 1208l12 -444v-764h-191zM449 -637l49 288h-108v227h234v-218l-85 -297h-90z" />
    <glyph glyph-name="uni0146" unicode="&#x146;" horiz-adv-x="968" 
d="M143 0v1500h205v-159q20 70 85.5 124t156.5 54q113 0 176 -80t63 -243v-1196h-205v1195q0 80 -36 116t-92 36q-41 0 -75 -18t-53.5 -56t-19.5 -98v-1175h-205zM426 -637l49 288h-108v227h234v-218l-85 -297h-90z" />
    <glyph glyph-name="Ncaron" unicode="&#x147;" horiz-adv-x="1014" 
d="M144 0v1760h156l408 -1198l-21 509v689h183v-1760h-152l-395 1208l12 -444v-764h-191zM391 1900l-154 294h184l86 -205l86 205h183l-153 -294h-232z" />
    <glyph glyph-name="ncaron" unicode="&#x148;" horiz-adv-x="968" 
d="M143 0v1500h205v-159q20 70 85.5 124t156.5 54q113 0 176 -80t63 -243v-1196h-205v1195q0 80 -36 116t-92 36q-41 0 -75 -18t-53.5 -56t-19.5 -98v-1175h-205zM368 1640l-154 294h184l86 -205l86 205h183l-153 -294h-232z" />
    <glyph glyph-name="Omacron" unicode="&#x14c;" horiz-adv-x="944" 
d="M474 -20q-132 0 -208.5 58t-109 175t-32.5 293v776q0 152 30 264t107 174t218 62q106 0 173 -35.5t103.5 -101t50.5 -157.5t14 -206v-776q0 -176 -31.5 -293t-107 -175t-207.5 -58zM474 158q57 0 87 32.5t41 108.5t11 205v790q0 158 -25 234t-109 76q-87 0 -117.5 -75.5
t-30.5 -233.5v-791q0 -130 11 -205.5t42 -108t90 -32.5zM214 1900v142h516v-142h-516z" />
    <glyph glyph-name="omacron" unicode="&#x14d;" horiz-adv-x="914" 
d="M459 -18q-106 0 -172 36.5t-101.5 104t-48.5 162t-13 211.5v531q0 141 27 252t99.5 175t208.5 64q102 0 167 -36.5t101 -103t49.5 -156t13.5 -195.5v-531q0 -115 -12 -209t-46.5 -162.5t-100 -105.5t-172.5 -37zM459 153q54 0 80.5 36t35.5 100.5t9 149.5v629
q0 84 -9 146.5t-36 97.5t-80 35q-56 0 -84 -35t-36.5 -97.5t-8.5 -146.5v-629q0 -85 8.5 -149.5t36.5 -100.5t84 -36zM199 1640v142h516v-142h-516z" />
    <glyph glyph-name="Obreve" unicode="&#x14e;" horiz-adv-x="944" 
d="M474 -20q-132 0 -208.5 58t-109 175t-32.5 293v776q0 152 30 264t107 174t218 62q106 0 173 -35.5t103.5 -101t50.5 -157.5t14 -206v-776q0 -176 -31.5 -293t-107 -175t-207.5 -58zM474 158q57 0 87 32.5t41 108.5t11 205v790q0 158 -25 234t-109 76q-87 0 -117.5 -75.5
t-30.5 -233.5v-791q0 -130 11 -205.5t42 -108t90 -32.5zM471 1900q-115 0 -174.5 58.5t-59.5 165.5v15h106q0 -75 40 -98t90 -23q49 0 88.5 22t39.5 99h106v-13q0 -107 -58 -166.5t-178 -59.5z" />
    <glyph glyph-name="obreve" unicode="&#x14f;" horiz-adv-x="914" 
d="M459 -18q-106 0 -172 36.5t-101.5 104t-48.5 162t-13 211.5v531q0 141 27 252t99.5 175t208.5 64q102 0 167 -36.5t101 -103t49.5 -156t13.5 -195.5v-531q0 -115 -12 -209t-46.5 -162.5t-100 -105.5t-172.5 -37zM459 153q54 0 80.5 36t35.5 100.5t9 149.5v629
q0 84 -9 146.5t-36 97.5t-80 35q-56 0 -84 -35t-36.5 -97.5t-8.5 -146.5v-629q0 -85 8.5 -149.5t36.5 -100.5t84 -36zM456 1640q-115 0 -174.5 58.5t-59.5 165.5v15h106q0 -75 40 -98t90 -23q49 0 88.5 22t39.5 99h106v-13q0 -107 -58 -166.5t-178 -59.5z" />
    <glyph glyph-name="Ohungarumlaut" unicode="&#x150;" horiz-adv-x="944" 
d="M474 -20q-132 0 -208.5 58t-109 175t-32.5 293v776q0 152 30 264t107 174t218 62q106 0 173 -35.5t103.5 -101t50.5 -157.5t14 -206v-776q0 -176 -31.5 -293t-107 -175t-207.5 -58zM474 158q57 0 87 32.5t41 108.5t11 205v790q0 158 -25 234t-109 76q-87 0 -117.5 -75.5
t-30.5 -233.5v-791q0 -130 11 -205.5t42 -108t90 -32.5zM578 1900l-94 50l197 376l152 -77zM286 1900l-94 50l160 376l158 -79z" />
    <glyph glyph-name="ohungarumlaut" unicode="&#x151;" horiz-adv-x="914" 
d="M459 -18q-106 0 -172 36.5t-101.5 104t-48.5 162t-13 211.5v531q0 141 27 252t99.5 175t208.5 64q102 0 167 -36.5t101 -103t49.5 -156t13.5 -195.5v-531q0 -115 -12 -209t-46.5 -162.5t-100 -105.5t-172.5 -37zM459 153q54 0 80.5 36t35.5 100.5t9 149.5v629
q0 84 -9 146.5t-36 97.5t-80 35q-56 0 -84 -35t-36.5 -97.5t-8.5 -146.5v-629q0 -85 8.5 -149.5t36.5 -100.5t84 -36zM563 1640l-94 50l197 376l152 -77zM271 1640l-94 50l160 376l158 -79z" />
    <glyph glyph-name="OE" unicode="&#x152;" horiz-adv-x="1214" 
d="M473 0q-132 0 -208 53t-108.5 165.5t-32.5 288.5v775q0 152 29.5 258.5t106.5 163t218 56.5h634v-172h-297v-602h280v-174h-280v-640h302v-172h-644zM473 178h136v1403h-131q-87 0 -117 -65t-30 -223v-788q0 -130 10.5 -200.5t41 -98t90.5 -28.5z" />
    <glyph glyph-name="oe" unicode="&#x153;" horiz-adv-x="1358" 
d="M462 -18q-106 0 -172.5 36.5t-102.5 104.5t-49.5 162.5t-13.5 211.5v530q0 106 15 195.5t52 156t103 103t168 36.5q80 0 136.5 -31.5t94.5 -83.5q38 52 95.5 83.5t138.5 31.5q103 0 165.5 -36t95 -101.5t44 -156t11.5 -198.5v-286h-449v-296q0 -142 19.5 -216.5
t107.5 -74.5q56 0 80.5 38t30.5 105.5t6 154.5v111h202v-60q0 -117 -9.5 -212.5t-41.5 -164.5t-96 -106t-174 -37q-82 0 -137.5 31t-92.5 83q-37 -51 -93 -82.5t-134 -31.5zM462 153q54 0 81 36t36 100.5t9 149.5v629q0 84 -9.5 146.5t-36.5 97.5t-80 35q-56 0 -84.5 -35
t-37.5 -97.5t-9 -146.5v-629q0 -85 9 -149.5t37.5 -100.5t84.5 -36zM795 889h243v184q0 90 -5.5 151.5t-29 93t-76.5 31.5q-59 0 -87.5 -37t-36.5 -102t-8 -149v-172z" />
    <glyph glyph-name="Racute" unicode="&#x154;" horiz-adv-x="939" 
d="M144 0v1760h369q140 0 207 -49.5t87.5 -149t20.5 -250.5q0 -163 -33 -259t-128 -124q48 -8 79.5 -41t49.5 -103t25.5 -187.5t7.5 -295.5v-49t1 -70t2.5 -75t4.5 -65.5t8 -41.5h-206q-4 9 -7 40t-5 82t-3 121.5t-1 158v191.5q0 100 -8.5 152.5t-40 73t-100.5 24.5l-123 7
v-850h-207zM351 1002h132q57 0 87.5 22.5t41.5 90t11 202.5v12q0 112 -10.5 169.5t-40.5 77.5t-91 20h-130v-594zM348 1900l94 371h211l-194 -371h-111z" />
    <glyph glyph-name="racute" unicode="&#x155;" horiz-adv-x="642" 
d="M147 0v1500h206v-167q26 87 90.5 136t164.5 49q2 0 2.5 -26.5t0.5 -60.5v-60.5v-26.5q-48 0 -96 -11.5t-90 -39t-72 -74.5v-1219h-206zM239 1640l94 371h211l-194 -371h-111z" />
    <glyph glyph-name="uni0156" unicode="&#x156;" horiz-adv-x="939" 
d="M144 0v1760h369q140 0 207 -49.5t87.5 -149t20.5 -250.5q0 -163 -33 -259t-128 -124q48 -8 79.5 -41t49.5 -103t25.5 -187.5t7.5 -295.5v-49t1 -70t2.5 -75t4.5 -65.5t8 -41.5h-206q-4 9 -7 40t-5 82t-3 121.5t-1 158v191.5q0 100 -8.5 152.5t-40 73t-100.5 24.5l-123 7
v-850h-207zM351 1002h132q57 0 87.5 22.5t41.5 90t11 202.5v12q0 112 -10.5 169.5t-40.5 77.5t-91 20h-130v-594zM412 -637l49 288h-108v227h234v-218l-85 -297h-90z" />
    <glyph glyph-name="uni0157" unicode="&#x157;" horiz-adv-x="642" 
d="M147 0v1500h206v-167q26 87 90.5 136t164.5 49q2 0 2.5 -26.5t0.5 -60.5v-60.5v-26.5q-48 0 -96 -11.5t-90 -39t-72 -74.5v-1219h-206zM204 -637l49 288h-108v227h234v-218l-85 -297h-90z" />
    <glyph glyph-name="Rcaron" unicode="&#x158;" horiz-adv-x="939" 
d="M144 0v1760h369q140 0 207 -49.5t87.5 -149t20.5 -250.5q0 -163 -33 -259t-128 -124q48 -8 79.5 -41t49.5 -103t25.5 -187.5t7.5 -295.5v-49t1 -70t2.5 -75t4.5 -65.5t8 -41.5h-206q-4 9 -7 40t-5 82t-3 121.5t-1 158v191.5q0 100 -8.5 152.5t-40 73t-100.5 24.5l-123 7
v-850h-207zM351 1002h132q57 0 87.5 22.5t41.5 90t11 202.5v12q0 112 -10.5 169.5t-40.5 77.5t-91 20h-130v-594zM354 1900l-154 294h184l86 -205l86 205h183l-153 -294h-232z" />
    <glyph glyph-name="rcaron" unicode="&#x159;" horiz-adv-x="642" 
d="M147 0v1500h206v-167q26 87 90.5 136t164.5 49q2 0 2.5 -26.5t0.5 -60.5v-60.5v-26.5q-48 0 -96 -11.5t-90 -39t-72 -74.5v-1219h-206zM245 1640l-154 294h184l86 -205l86 205h183l-153 -294h-232z" />
    <glyph glyph-name="Sacute" unicode="&#x15a;" horiz-adv-x="828" 
d="M428 -20q-107 0 -174 38.5t-103 109.5t-49.5 167.5t-13.5 213.5v171h201v-179q0 -185 26.5 -264.5t114.5 -79.5q61 0 89.5 28.5t36.5 91.5t8 166q0 118 -41.5 203t-119.5 163l-115 115q-50 51 -98 111.5t-79.5 137.5t-31.5 176q0 133 28 230t102 150t210 53
q107 0 171.5 -37t97 -105.5t43 -162.5t10.5 -208v-104h-198v118q0 107 -8.5 178.5t-34.5 107.5t-81 36q-50 0 -81.5 -24.5t-45.5 -75.5t-14 -131q0 -70 17 -115.5t51.5 -84.5t84.5 -92l120 -127q95 -99 155.5 -221.5t60.5 -284.5q0 -146 -28.5 -251t-101.5 -161.5
t-209 -56.5zM292 1900l94 371h211l-194 -371h-111z" />
    <glyph glyph-name="sacute" unicode="&#x15b;" horiz-adv-x="804" 
d="M426 -20q-160 0 -243 100.5t-83 333.5v113h199v-112q0 -126 27.5 -193t90.5 -67t92.5 41t29.5 147q0 53 -16 105.5t-49 104t-85 100.5l-106 101q-95 91 -145 193.5t-50 217.5q0 182 86 267.5t237 85.5q101 0 170 -44t104 -146t35 -278v-72h-195v104q0 126 -24.5 193
t-87.5 67q-61 0 -91.5 -35.5t-33.5 -129.5q-1 -48 12.5 -97t44.5 -97t80 -94l108 -101q105 -97 158.5 -208.5t53.5 -235.5q0 -170 -77.5 -267t-241.5 -97zM280 1640l94 371h211l-194 -371h-111z" />
    <glyph glyph-name="Scircumflex" unicode="&#x15c;" horiz-adv-x="828" 
d="M428 -20q-107 0 -174 38.5t-103 109.5t-49.5 167.5t-13.5 213.5v171h201v-179q0 -185 26.5 -264.5t114.5 -79.5q61 0 89.5 28.5t36.5 91.5t8 166q0 118 -41.5 203t-119.5 163l-115 115q-50 51 -98 111.5t-79.5 137.5t-31.5 176q0 133 28 230t102 150t210 53
q107 0 171.5 -37t97 -105.5t43 -162.5t10.5 -208v-104h-198v118q0 107 -8.5 178.5t-34.5 107.5t-81 36q-50 0 -81.5 -24.5t-45.5 -75.5t-14 -131q0 -70 17 -115.5t51.5 -84.5t84.5 -92l120 -127q95 -99 155.5 -221.5t60.5 -284.5q0 -146 -28.5 -251t-101.5 -161.5
t-209 -56.5zM144 1900l154 292h232l153 -292h-183l-86 205l-86 -205h-184z" />
    <glyph glyph-name="scircumflex" unicode="&#x15d;" horiz-adv-x="804" 
d="M426 -20q-160 0 -243 100.5t-83 333.5v113h199v-112q0 -126 27.5 -193t90.5 -67t92.5 41t29.5 147q0 53 -16 105.5t-49 104t-85 100.5l-106 101q-95 91 -145 193.5t-50 217.5q0 182 86 267.5t237 85.5q101 0 170 -44t104 -146t35 -278v-72h-195v104q0 126 -24.5 193
t-87.5 67q-61 0 -91.5 -35.5t-33.5 -129.5q-1 -48 12.5 -97t44.5 -97t80 -94l108 -101q105 -97 158.5 -208.5t53.5 -235.5q0 -170 -77.5 -267t-241.5 -97zM132 1640l154 292h232l153 -292h-183l-86 205l-86 -205h-184z" />
    <glyph glyph-name="Scedilla" unicode="&#x15e;" horiz-adv-x="828" 
d="M428 -20q-107 0 -174 38.5t-103 109.5t-49.5 167.5t-13.5 213.5v171h201v-179q0 -185 26.5 -264.5t114.5 -79.5q61 0 89.5 28.5t36.5 91.5t8 166q0 118 -41.5 203t-119.5 163l-115 115q-50 51 -98 111.5t-79.5 137.5t-31.5 176q0 133 28 230t102 150t210 53
q107 0 171.5 -37t97 -105.5t43 -162.5t10.5 -208v-104h-198v118q0 107 -8.5 178.5t-34.5 107.5t-81 36q-50 0 -81.5 -24.5t-45.5 -75.5t-14 -131q0 -70 17 -115.5t51.5 -84.5t84.5 -92l120 -127q95 -99 155.5 -221.5t60.5 -284.5q0 -146 -28.5 -251t-101.5 -161.5
t-209 -56.5zM383 -617q-57 0 -117 18v98q95 0 144.5 20t68 52.5t18.5 69.5q0 68 -49 109t-111 54l40 196h69l12 -144q104 -43 153.5 -108t49.5 -133q0 -61 -34.5 -114t-96.5 -85.5t-147 -32.5z" />
    <glyph glyph-name="scedilla" unicode="&#x15f;" horiz-adv-x="804" 
d="M426 -20q-160 0 -243 100.5t-83 333.5v113h199v-112q0 -126 27.5 -193t90.5 -67t92.5 41t29.5 147q0 53 -16 105.5t-49 104t-85 100.5l-106 101q-95 91 -145 193.5t-50 217.5q0 182 86 267.5t237 85.5q101 0 170 -44t104 -146t35 -278v-72h-195v104q0 126 -24.5 193
t-87.5 67q-61 0 -91.5 -35.5t-33.5 -129.5q-1 -48 12.5 -97t44.5 -97t80 -94l108 -101q105 -97 158.5 -208.5t53.5 -235.5q0 -170 -77.5 -267t-241.5 -97zM371 -617q-57 0 -117 18v98q95 0 144.5 20t68 52.5t18.5 69.5q0 68 -49 109t-111 54l40 196h69l12 -144
q104 -43 153.5 -108t49.5 -133q0 -61 -34.5 -114t-96.5 -85.5t-147 -32.5z" />
    <glyph glyph-name="Scaron" unicode="&#x160;" horiz-adv-x="828" 
d="M428 -20q-107 0 -174 38.5t-103 109.5t-49.5 167.5t-13.5 213.5v171h201v-179q0 -185 26.5 -264.5t114.5 -79.5q61 0 89.5 28.5t36.5 91.5t8 166q0 118 -41.5 203t-119.5 163l-115 115q-50 51 -98 111.5t-79.5 137.5t-31.5 176q0 133 28 230t102 150t210 53
q107 0 171.5 -37t97 -105.5t43 -162.5t10.5 -208v-104h-198v118q0 107 -8.5 178.5t-34.5 107.5t-81 36q-50 0 -81.5 -24.5t-45.5 -75.5t-14 -131q0 -70 17 -115.5t51.5 -84.5t84.5 -92l120 -127q95 -99 155.5 -221.5t60.5 -284.5q0 -146 -28.5 -251t-101.5 -161.5
t-209 -56.5zM298 1900l-154 294h184l86 -205l86 205h183l-153 -294h-232z" />
    <glyph glyph-name="scaron" unicode="&#x161;" horiz-adv-x="804" 
d="M426 -20q-160 0 -243 100.5t-83 333.5v113h199v-112q0 -126 27.5 -193t90.5 -67t92.5 41t29.5 147q0 53 -16 105.5t-49 104t-85 100.5l-106 101q-95 91 -145 193.5t-50 217.5q0 182 86 267.5t237 85.5q101 0 170 -44t104 -146t35 -278v-72h-195v104q0 126 -24.5 193
t-87.5 67q-61 0 -91.5 -35.5t-33.5 -129.5q-1 -48 12.5 -97t44.5 -97t80 -94l108 -101q105 -97 158.5 -208.5t53.5 -235.5q0 -170 -77.5 -267t-241.5 -97zM286 1640l-154 294h184l86 -205l86 205h183l-153 -294h-232z" />
    <glyph glyph-name="Tcaron" unicode="&#x164;" horiz-adv-x="629" 
d="M218 0v1588h-194v172h581v-172h-181v-1588h-206zM199 1900l-154 294h184l86 -205l86 205h183l-153 -294h-232z" />
    <glyph glyph-name="tcaron" unicode="&#x165;" horiz-adv-x="852" 
d="M408 -9q-96 0 -145 23t-66 74t-17 135v1113h-137v152h137v272h205v-272h162v-152h-162v-1095q0 -38 10 -56.5t45 -24.5t109 -6v-163h-141zM677 1268l49 288h-108v227h234v-218l-85 -297h-90z" />
    <glyph glyph-name="Utilde" unicode="&#x168;" horiz-adv-x="954" 
d="M479 -21q-130 0 -206.5 51.5t-109.5 156.5t-33 265v1308h207v-1303q0 -95 7 -163t37 -104t98 -36q69 0 98 36t35.5 103.5t6.5 162.5v1304h206v-1308q0 -160 -32 -265t-107.5 -156.5t-206.5 -51.5zM624 1900q-44 0 -92 20.5t-94.5 41t-88.5 20.5q-16 0 -23 -2
q-16 -4 -26.5 -18.5t-24.5 -40.5l-111 49q20 68 47.5 101.5t61 45t71.5 11.5q41 0 92.5 -18.5t98 -37t71.5 -18.5h4q14 2 27 14t29 57l123 -28l-9 -37q-26 -100 -62.5 -130t-93.5 -30z" />
    <glyph glyph-name="utilde" unicode="&#x169;" horiz-adv-x="962" 
d="M386 -20q-67 0 -124 33t-92 106.5t-35 192.5v1188h205v-1165q0 -87 31 -132t98 -45q74 0 109.5 51.5t35.5 130.5v1160h206v-1500h-206v153q-22 -70 -79 -121.5t-149 -51.5zM628 1640q-44 0 -92 20.5t-94.5 41t-88.5 20.5q-16 0 -23 -2q-16 -4 -26.5 -18.5t-24.5 -40.5
l-111 49q20 68 47.5 101.5t61 45t71.5 11.5q41 0 92.5 -18.5t98 -37t71.5 -18.5h4q14 2 27 14t29 57l123 -28l-9 -37q-26 -100 -62.5 -130t-93.5 -30z" />
    <glyph glyph-name="Umacron" unicode="&#x16a;" horiz-adv-x="954" 
d="M479 -21q-130 0 -206.5 51.5t-109.5 156.5t-33 265v1308h207v-1303q0 -95 7 -163t37 -104t98 -36q69 0 98 36t35.5 103.5t6.5 162.5v1304h206v-1308q0 -160 -32 -265t-107.5 -156.5t-206.5 -51.5zM219 1900v142h516v-142h-516z" />
    <glyph glyph-name="umacron" unicode="&#x16b;" horiz-adv-x="962" 
d="M386 -20q-67 0 -124 33t-92 106.5t-35 192.5v1188h205v-1165q0 -87 31 -132t98 -45q74 0 109.5 51.5t35.5 130.5v1160h206v-1500h-206v153q-22 -70 -79 -121.5t-149 -51.5zM223 1640v142h516v-142h-516z" />
    <glyph glyph-name="Ubreve" unicode="&#x16c;" horiz-adv-x="954" 
d="M479 -21q-130 0 -206.5 51.5t-109.5 156.5t-33 265v1308h207v-1303q0 -95 7 -163t37 -104t98 -36q69 0 98 36t35.5 103.5t6.5 162.5v1304h206v-1308q0 -160 -32 -265t-107.5 -156.5t-206.5 -51.5zM476 1900q-115 0 -174.5 58.5t-59.5 165.5v15h106q0 -75 40 -98t90 -23
q49 0 88.5 22t39.5 99h106v-13q0 -107 -58 -166.5t-178 -59.5z" />
    <glyph glyph-name="ubreve" unicode="&#x16d;" horiz-adv-x="962" 
d="M386 -20q-67 0 -124 33t-92 106.5t-35 192.5v1188h205v-1165q0 -87 31 -132t98 -45q74 0 109.5 51.5t35.5 130.5v1160h206v-1500h-206v153q-22 -70 -79 -121.5t-149 -51.5zM480 1640q-115 0 -174.5 58.5t-59.5 165.5v15h106q0 -75 40 -98t90 -23q49 0 88.5 22t39.5 99
h106v-13q0 -107 -58 -166.5t-178 -59.5z" />
    <glyph glyph-name="Uring" unicode="&#x16e;" horiz-adv-x="954" 
d="M479 -21q-130 0 -206.5 51.5t-109.5 156.5t-33 265v1308h207v-1303q0 -95 7 -163t37 -104t98 -36q69 0 98 36t35.5 103.5t6.5 162.5v1304h206v-1308q0 -160 -32 -265t-107.5 -156.5t-206.5 -51.5zM477 1900q-97 0 -148.5 56.5t-51.5 131.5q0 74 51.5 130.5t148.5 56.5
q98 0 149 -56.5t51 -130.5q0 -75 -51 -131.5t-149 -56.5zM477 1972q55 0 82.5 36.5t27.5 79.5q0 44 -27.5 80t-82.5 36q-53 0 -80 -36t-27 -80q0 -43 27 -79.5t80 -36.5z" />
    <glyph glyph-name="uring" unicode="&#x16f;" horiz-adv-x="962" 
d="M386 -20q-67 0 -124 33t-92 106.5t-35 192.5v1188h205v-1165q0 -87 31 -132t98 -45q74 0 109.5 51.5t35.5 130.5v1160h206v-1500h-206v153q-22 -70 -79 -121.5t-149 -51.5zM481 1640q-97 0 -148.5 56.5t-51.5 131.5q0 74 51.5 130.5t148.5 56.5q98 0 149 -56.5t51 -130.5
q0 -75 -51 -131.5t-149 -56.5zM481 1712q55 0 82.5 36.5t27.5 79.5q0 44 -27.5 80t-82.5 36q-53 0 -80 -36t-27 -80q0 -43 27 -79.5t80 -36.5z" />
    <glyph glyph-name="Uhungarumlaut" unicode="&#x170;" horiz-adv-x="954" 
d="M479 -21q-130 0 -206.5 51.5t-109.5 156.5t-33 265v1308h207v-1303q0 -95 7 -163t37 -104t98 -36q69 0 98 36t35.5 103.5t6.5 162.5v1304h206v-1308q0 -160 -32 -265t-107.5 -156.5t-206.5 -51.5zM583 1900l-94 50l197 376l152 -77zM291 1900l-94 50l160 376l158 -79z
" />
    <glyph glyph-name="uhungarumlaut" unicode="&#x171;" horiz-adv-x="962" 
d="M386 -20q-67 0 -124 33t-92 106.5t-35 192.5v1188h205v-1165q0 -87 31 -132t98 -45q74 0 109.5 51.5t35.5 130.5v1160h206v-1500h-206v153q-22 -70 -79 -121.5t-149 -51.5zM587 1640l-94 50l197 376l152 -77zM295 1640l-94 50l160 376l158 -79z" />
    <glyph glyph-name="Uogonek" unicode="&#x172;" horiz-adv-x="954" 
d="M479 -21q-130 0 -206.5 51.5t-109.5 156.5t-33 265v1308h207v-1303q0 -95 7 -163t37 -104t98 -36q69 0 98 36t35.5 103.5t6.5 162.5v1304h206v-1308q0 -160 -32 -265t-107.5 -156.5t-206.5 -51.5zM507 -626q-91 0 -151 30t-89.5 82t-29.5 118q0 101 70 211t203 185h85
q-89 -88 -144.5 -186.5t-55.5 -178.5q0 -61 38 -96t111 -35q52 0 90 9.5l42 10.5v-115q-17 -10 -67.5 -22.5t-101.5 -12.5z" />
    <glyph glyph-name="uogonek" unicode="&#x173;" horiz-adv-x="962" 
d="M386 -20q-67 0 -124 33t-92 106.5t-35 192.5v1188h205v-1165q0 -87 31 -132t98 -45q74 0 109.5 51.5t35.5 130.5v1160h206v-1500h-206v153q-22 -70 -79 -121.5t-149 -51.5zM684 -626q-91 0 -151 30t-89.5 82t-29.5 118q0 101 70 211t203 185h85q-89 -88 -144.5 -186.5
t-55.5 -178.5q0 -61 38 -96t111 -35q52 0 90 9.5l42 10.5v-115q-17 -10 -67.5 -22.5t-101.5 -12.5z" />
    <glyph glyph-name="Wcircumflex" unicode="&#x174;" horiz-adv-x="1340" 
d="M286 0l-232 1760h191l150 -1349l200 1349h169l205 -1349l127 1349h190l-208 -1760h-205l-188 1299l-199 -1299h-200zM400 1900l154 292h232l153 -292h-183l-86 205l-86 -205h-184z" />
    <glyph glyph-name="wcircumflex" unicode="&#x175;" horiz-adv-x="1166" 
d="M230 0l-175 1500h172l79 -835l23 -287h9l38 288l119 834h54h92h33l119 -812l41 -310h8l24 311l78 811h168l-181 -1500h-189l-151 1174l-180 -1174h-181zM313 1640l154 292h232l153 -292h-183l-86 205l-86 -205h-184z" />
    <glyph glyph-name="Ycircumflex" unicode="&#x176;" horiz-adv-x="827" 
d="M321 0v739l-306 1021h205l204 -715h4l177 715h207l-284 -1021v-739h-207zM144 1900l154 292h232l153 -292h-183l-86 205l-86 -205h-184z" />
    <glyph glyph-name="ycircumflex" unicode="&#x177;" horiz-adv-x="786" 
d="M104 -251v155h71q44 0 76.5 4.5t39.5 19.5q12 16 9.5 50.5t-8.5 74.5l-245 1447h199l108 -780l44 -406h18l39 406l98 780h198l-249 -1529q-12 -81 -30 -130t-55.5 -70.5t-111.5 -21.5h-201zM123 1640l154 292h232l153 -292h-183l-86 205l-86 -205h-184z" />
    <glyph glyph-name="Ydieresis" unicode="&#x178;" horiz-adv-x="827" 
d="M321 0v739l-306 1021h205l204 -715h4l177 715h207l-284 -1021v-739h-207zM541 1900v178h230v-178h-230zM57 1900v178h230v-178h-230z" />
    <glyph glyph-name="Zacute" unicode="&#x179;" horiz-adv-x="690" 
d="M69 0v179l363 1409h-330v172h544v-158l-363 -1430h355v-172h-569zM223 1900l94 371h211l-194 -371h-111z" />
    <glyph glyph-name="zacute" unicode="&#x17a;" horiz-adv-x="673" 
d="M72 0v153l330 1170h-305v177h517v-141l-331 -1184h314v-175h-525zM215 1640l94 371h211l-194 -371h-111z" />
    <glyph glyph-name="Zdotaccent" unicode="&#x17b;" horiz-adv-x="690" 
d="M69 0v179l363 1409h-330v172h544v-158l-363 -1430h355v-172h-569zM242 1898v188h206v-188h-206z" />
    <glyph glyph-name="zdotaccent" unicode="&#x17c;" horiz-adv-x="673" 
d="M72 0v153l330 1170h-305v177h517v-141l-331 -1184h314v-175h-525zM234 1638v188h206v-188h-206z" />
    <glyph glyph-name="Zcaron" unicode="&#x17d;" horiz-adv-x="690" 
d="M69 0v179l363 1409h-330v172h544v-158l-363 -1430h355v-172h-569zM229 1900l-154 294h184l86 -205l86 205h183l-153 -294h-232z" />
    <glyph glyph-name="zcaron" unicode="&#x17e;" horiz-adv-x="673" 
d="M72 0v153l330 1170h-305v177h517v-141l-331 -1184h314v-175h-525zM221 1640l-154 294h184l86 -205l86 205h183l-153 -294h-232z" />
    <glyph glyph-name="florin" unicode="&#x192;" horiz-adv-x="767" 
d="M270 -15q-37 0 -75.5 6t-79.5 17v149q15 -1 28 -2t24 -1q53 0 78 13t33 46t8 92v797h-179v153h179v284q0 123 49 184.5t148 61.5q81 0 169 -33v-149q-30 9 -53.5 14t-41.5 5q-44 0 -60.5 -29t-16.5 -90v-248h182v-153h-182v-881q0 -116 -50.5 -176t-159.5 -60z" />
    <glyph glyph-name="uni01C4" unicode="&#x1c4;" horiz-adv-x="1644" 
d="M144 0v1760h331q138 0 215 -57.5t108 -164.5t31 -256l1 -773q0 -178 -35.5 -290.5t-115 -165.5t-211.5 -53h-324zM350 167h106q56 0 93 24.5t55.5 91.5t18.5 194v810q0 166 -39 237.5t-128 71.5h-106v-1429zM1023 0v179l363 1409h-330v172h544v-158l-363 -1430h355v-172
h-569zM1183 1900l-154 294h184l86 -205l86 205h183l-153 -294h-232z" />
    <glyph glyph-name="uni01C5" unicode="&#x1c5;" horiz-adv-x="1627" 
d="M144 0v1760h331q138 0 215 -57.5t108 -164.5t31 -256l1 -773q0 -178 -35.5 -290.5t-115 -165.5t-211.5 -53h-324zM350 167h106q56 0 93 24.5t55.5 91.5t18.5 194v810q0 166 -39 237.5t-128 71.5h-106v-1429zM1026 0v153l330 1170h-305v177h517v-141l-331 -1184h314v-175
h-525zM1175 1640l-154 294h184l86 -205l86 205h183l-153 -294h-232z" />
    <glyph glyph-name="uni01C6" unicode="&#x1c6;" horiz-adv-x="1612" 
d="M379 -13q-111 0 -165.5 65t-72 176.5t-17.5 251.5v567q0 134 24.5 240.5t87 168.5t174.5 62q59 0 105.5 -34t70.5 -84v379h206v-1779h-206v126q-30 -74 -85 -106.5t-122 -32.5zM450 154q47 0 77.5 23.5t45 87.5t14.5 183v602q0 146 -24.5 221t-107.5 75
q-75 -1 -100 -73.5t-25 -227.5v-606q0 -87 8.5 -151t34.5 -99t77 -35zM1011 0v153l330 1170h-305v177h517v-141l-331 -1184h314v-175h-525zM1160 1640l-154 294h184l86 -205l86 205h183l-153 -294h-232z" />
    <glyph glyph-name="uni01C7" unicode="&#x1c7;" horiz-adv-x="1571" 
d="M144 0v1760h207v-1589h325v-171h-532zM1107 -21q-167 0 -244.5 102.5t-77.5 307.5v230h202v-217q0 -67 5.5 -123t29.5 -90t79 -34t78.5 33t29 92.5t5.5 137.5v1342h207v-1334q0 -222 -78 -334.5t-236 -112.5z" />
    <glyph glyph-name="uni01C8" unicode="&#x1c8;" horiz-adv-x="1215" 
d="M144 0v1760h207v-1589h325v-171h-532zM895 -211q-48 0 -84.5 4t-53.5 7v144q10 -1 25.5 -2t32.5 -1q29 0 39.5 20.5t10.5 48.5v1490h205v-1480q0 -85 -25.5 -136t-65.5 -73t-84 -22zM866 1638v188h206v-188h-206z" />
    <glyph glyph-name="uni01C9" unicode="&#x1c9;" horiz-adv-x="1023" 
d="M147 0v1779h205v-1779h-205zM703 -211q-48 0 -84.5 4t-53.5 7v144q10 -1 25.5 -2t32.5 -1q29 0 39.5 20.5t10.5 48.5v1490h205v-1480q0 -85 -25.5 -136t-65.5 -73t-84 -22zM674 1638v188h206v-188h-206z" />
    <glyph glyph-name="uni01CA" unicode="&#x1ca;" horiz-adv-x="1890" 
d="M144 0v1760h156l408 -1198l-21 509v689h183v-1760h-152l-395 1208l12 -444v-764h-191zM1426 -21q-167 0 -244.5 102.5t-77.5 307.5v230h202v-217q0 -67 5.5 -123t29.5 -90t79 -34t78.5 33t29 92.5t5.5 137.5v1342h207v-1334q0 -222 -78 -334.5t-236 -112.5z" />
    <glyph glyph-name="uni01CB" unicode="&#x1cb;" horiz-adv-x="1534" 
d="M144 0v1760h156l408 -1198l-21 509v689h183v-1760h-152l-395 1208l12 -444v-764h-191zM1214 -211q-48 0 -84.5 4t-53.5 7v144q10 -1 25.5 -2t32.5 -1q29 0 39.5 20.5t10.5 48.5v1490h205v-1480q0 -85 -25.5 -136t-65.5 -73t-84 -22zM1185 1638v188h206v-188h-206z" />
    <glyph glyph-name="uni01CC" unicode="&#x1cc;" horiz-adv-x="1488" 
d="M143 0v1500h205v-159q20 70 85.5 124t156.5 54q113 0 176 -80t63 -243v-1196h-205v1195q0 80 -36 116t-92 36q-41 0 -75 -18t-53.5 -56t-19.5 -98v-1175h-205zM1168 -211q-48 0 -84.5 4t-53.5 7v144q10 -1 25.5 -2t32.5 -1q29 0 39.5 20.5t10.5 48.5v1490h205v-1480
q0 -85 -25.5 -136t-65.5 -73t-84 -22zM1139 1638v188h206v-188h-206z" />
    <glyph glyph-name="uni01F1" unicode="&#x1f1;" horiz-adv-x="1644" 
d="M144 0v1760h331q138 0 215 -57.5t108 -164.5t31 -256l1 -773q0 -178 -35.5 -290.5t-115 -165.5t-211.5 -53h-324zM350 167h106q56 0 93 24.5t55.5 91.5t18.5 194v810q0 166 -39 237.5t-128 71.5h-106v-1429zM1023 0v179l363 1409h-330v172h544v-158l-363 -1430h355v-172
h-569z" />
    <glyph glyph-name="uni01F2" unicode="&#x1f2;" horiz-adv-x="1627" 
d="M144 0v1760h331q138 0 215 -57.5t108 -164.5t31 -256l1 -773q0 -178 -35.5 -290.5t-115 -165.5t-211.5 -53h-324zM350 167h106q56 0 93 24.5t55.5 91.5t18.5 194v810q0 166 -39 237.5t-128 71.5h-106v-1429zM1026 0v153l330 1170h-305v177h517v-141l-331 -1184h314v-175
h-525z" />
    <glyph glyph-name="uni01F3" unicode="&#x1f3;" horiz-adv-x="1612" 
d="M379 -13q-111 0 -165.5 65t-72 176.5t-17.5 251.5v567q0 134 24.5 240.5t87 168.5t174.5 62q59 0 105.5 -34t70.5 -84v379h206v-1779h-206v126q-30 -74 -85 -106.5t-122 -32.5zM450 154q47 0 77.5 23.5t45 87.5t14.5 183v602q0 146 -24.5 221t-107.5 75
q-75 -1 -100 -73.5t-25 -227.5v-606q0 -87 8.5 -151t34.5 -99t77 -35zM1011 0v153l330 1170h-305v177h517v-141l-331 -1184h314v-175h-525z" />
    <glyph glyph-name="uni01F4" unicode="&#x1f4;" horiz-adv-x="939" 
d="M441 -17q-153 0 -235 126t-82 415v738q0 116 16.5 210.5t56.5 163.5t109.5 106t175.5 37q110 0 175.5 -37.5t99.5 -106.5t45 -165t11 -212v-136h-200v229q0 128 -25.5 189.5t-105.5 61.5q-85 0 -118 -73t-33 -258v-740q0 -202 27.5 -289t117.5 -87q86 0 116.5 87.5
t30.5 292.5v229h-143v160h333v-924h-109l-28 136q-28 -74 -88.5 -113.5t-146.5 -39.5zM348 1900l94 371h211l-194 -371h-111z" />
    <glyph glyph-name="uni01F5" unicode="&#x1f5;" horiz-adv-x="929" 
d="M446 -229q-103 -3 -185.5 23t-141.5 73l74 140q44 -30 104 -53t139 -21q70 2 108.5 52.5t38.5 135.5v143q-29 -74 -80 -99t-116 -25q-105 0 -162.5 61t-80 167t-22.5 240v430q0 137 26.5 246t88.5 172.5t168 61.5q64 -1 110.5 -32t67.5 -96v110h205v-1360
q0 -64 -15.5 -128t-53 -117.5t-104 -87t-169.5 -36.5zM466 303q40 0 66 24t38.5 89.5t12.5 188.5v463q0 137 -24.5 208t-102.5 71q-57 0 -84.5 -35.5t-35.5 -97.5t-8 -144v-467q0 -149 27 -224.5t111 -75.5zM343 1640l94 371h211l-194 -371h-111z" />
    <glyph glyph-name="uni0200" unicode="&#x200;" horiz-adv-x="907" 
d="M50 0l267 1760h249l291 -1760h-195l-50 336h-319l-46 -336h-197zM316 504h270l-139 930h-3zM318 1900l-255 349l152 77l197 -376zM610 1900l-224 347l158 79l160 -376z" />
    <glyph glyph-name="uni0201" unicode="&#x201;" horiz-adv-x="902" 
d="M370 -13q-136 0 -196 105.5t-61 292.5v146q0 99 34 164.5t96 109.5t146 79.5t184 75.5v116q0 96 -6 155.5t-30.5 87.5t-78.5 28q-53 0 -79.5 -28t-34.5 -88t-8 -156v-52h-204v43q0 96 12 178.5t46 143.5t99.5 95.5t172.5 34.5q102 0 164.5 -32.5t96 -95.5t45.5 -155.5
t12 -213.5v-1021h-206v130q-9 -30 -35 -63.5t-68 -56.5t-101 -23zM428 153q54 0 93 34.5t52 68.5v571q-77 -34 -126.5 -61.5t-77 -57.5t-38.5 -72t-11 -106v-139q0 -127 22 -182.5t86 -55.5zM325 1640l-255 349l152 77l197 -376zM617 1640l-224 347l158 79l160 -376z" />
    <glyph glyph-name="uni0202" unicode="&#x202;" horiz-adv-x="907" 
d="M50 0l267 1760h249l291 -1760h-195l-50 336h-319l-46 -336h-197zM316 504h270l-139 930h-3zM209 1920v13q-1 107 55.5 168t176.5 63q116 2 176.5 -55.5t61.5 -164.5v-15l-106 -2q-1 76 -41.5 98t-90.5 21q-48 -1 -87.5 -24t-38.5 -100z" />
    <glyph glyph-name="uni0203" unicode="&#x203;" horiz-adv-x="902" 
d="M370 -13q-136 0 -196 105.5t-61 292.5v146q0 99 34 164.5t96 109.5t146 79.5t184 75.5v116q0 96 -6 155.5t-30.5 87.5t-78.5 28q-53 0 -79.5 -28t-34.5 -88t-8 -156v-52h-204v43q0 96 12 178.5t46 143.5t99.5 95.5t172.5 34.5q102 0 164.5 -32.5t96 -95.5t45.5 -155.5
t12 -213.5v-1021h-206v130q-9 -30 -35 -63.5t-68 -56.5t-101 -23zM428 153q54 0 93 34.5t52 68.5v571q-77 -34 -126.5 -61.5t-77 -57.5t-38.5 -72t-11 -106v-139q0 -127 22 -182.5t86 -55.5zM216 1660v13q-1 107 55.5 168t176.5 63q116 2 176.5 -55.5t61.5 -164.5v-15
l-106 -2q-1 76 -41.5 98t-90.5 21q-48 -1 -87.5 -24t-38.5 -100z" />
    <glyph glyph-name="uni0204" unicode="&#x204;" horiz-adv-x="755" 
d="M144 0v1760h526v-172h-319v-602h302v-172h-302v-642h323v-172h-530zM278 1900l-255 349l152 77l197 -376zM570 1900l-224 347l158 79l160 -376z" />
    <glyph glyph-name="uni0205" unicode="&#x205;" horiz-adv-x="881" 
d="M454 -18q-108 0 -173.5 37.5t-99.5 106.5t-45.5 165.5t-11.5 213.5v530q0 106 15 194.5t52 153t103 100t168 35.5q103 0 166 -36t95.5 -101.5t43.5 -156t11 -198.5v-283h-448v-299q0 -142 19.5 -216.5t106.5 -74.5q57 0 81.5 35.5t30 100t5.5 152.5v121h201v-64
q0 -117 -9.5 -212t-40.5 -163t-95.5 -104.5t-174.5 -36.5zM329 882h244v191q0 90 -6 151.5t-29 93t-76 31.5q-59 0 -87.5 -36t-37 -99.5t-8.5 -147.5v-184zM315 1640l-255 349l152 77l197 -376zM607 1640l-224 347l158 79l160 -376z" />
    <glyph glyph-name="uni0206" unicode="&#x206;" horiz-adv-x="755" 
d="M144 0v1760h526v-172h-319v-602h302v-172h-302v-642h323v-172h-530zM169 1920v13q-1 107 55.5 168t176.5 63q116 2 176.5 -55.5t61.5 -164.5v-15l-106 -2q-1 76 -41.5 98t-90.5 21q-48 -1 -87.5 -24t-38.5 -100z" />
    <glyph glyph-name="uni0207" unicode="&#x207;" horiz-adv-x="881" 
d="M454 -18q-108 0 -173.5 37.5t-99.5 106.5t-45.5 165.5t-11.5 213.5v530q0 106 15 194.5t52 153t103 100t168 35.5q103 0 166 -36t95.5 -101.5t43.5 -156t11 -198.5v-283h-448v-299q0 -142 19.5 -216.5t106.5 -74.5q57 0 81.5 35.5t30 100t5.5 152.5v121h201v-64
q0 -117 -9.5 -212t-40.5 -163t-95.5 -104.5t-174.5 -36.5zM329 882h244v191q0 90 -6 151.5t-29 93t-76 31.5q-59 0 -87.5 -36t-37 -99.5t-8.5 -147.5v-184zM206 1660v13q-1 107 55.5 168t176.5 63q116 2 176.5 -55.5t61.5 -164.5v-15l-106 -2q-1 76 -41.5 98t-90.5 21
q-48 -1 -87.5 -24t-38.5 -100z" />
    <glyph glyph-name="uni0208" unicode="&#x208;" horiz-adv-x="495" 
d="M144 0v1760h207v-1760h-207zM122 1900l-255 349l152 77l197 -376zM414 1900l-224 347l158 79l160 -376z" />
    <glyph glyph-name="uni0209" unicode="&#x209;" horiz-adv-x="504" 
d="M149 0v1500h206v-1500h-206zM126 1640l-255 349l152 77l197 -376zM418 1640l-224 347l158 79l160 -376z" />
    <glyph glyph-name="uni020A" unicode="&#x20a;" horiz-adv-x="495" 
d="M144 0v1760h207v-1760h-207zM13 1920v13q-1 107 55.5 168t176.5 63q116 2 176.5 -55.5t61.5 -164.5v-15l-106 -2q-1 76 -41.5 98t-90.5 21q-48 -1 -87.5 -24t-38.5 -100z" />
    <glyph glyph-name="uni020B" unicode="&#x20b;" horiz-adv-x="504" 
d="M149 0v1500h206v-1500h-206zM17 1660v13q-1 107 55.5 168t176.5 63q116 2 176.5 -55.5t61.5 -164.5v-15l-106 -2q-1 76 -41.5 98t-90.5 21q-48 -1 -87.5 -24t-38.5 -100z" />
    <glyph glyph-name="uni020C" unicode="&#x20c;" horiz-adv-x="944" 
d="M474 -20q-132 0 -208.5 58t-109 175t-32.5 293v776q0 152 30 264t107 174t218 62q106 0 173 -35.5t103.5 -101t50.5 -157.5t14 -206v-776q0 -176 -31.5 -293t-107 -175t-207.5 -58zM474 158q57 0 87 32.5t41 108.5t11 205v790q0 158 -25 234t-109 76q-87 0 -117.5 -75.5
t-30.5 -233.5v-791q0 -130 11 -205.5t42 -108t90 -32.5zM346 1900l-255 349l152 77l197 -376zM638 1900l-224 347l158 79l160 -376z" />
    <glyph glyph-name="uni020D" unicode="&#x20d;" horiz-adv-x="914" 
d="M459 -18q-106 0 -172 36.5t-101.5 104t-48.5 162t-13 211.5v531q0 141 27 252t99.5 175t208.5 64q102 0 167 -36.5t101 -103t49.5 -156t13.5 -195.5v-531q0 -115 -12 -209t-46.5 -162.5t-100 -105.5t-172.5 -37zM459 153q54 0 80.5 36t35.5 100.5t9 149.5v629
q0 84 -9 146.5t-36 97.5t-80 35q-56 0 -84 -35t-36.5 -97.5t-8.5 -146.5v-629q0 -85 8.5 -149.5t36.5 -100.5t84 -36zM331 1640l-255 349l152 77l197 -376zM623 1640l-224 347l158 79l160 -376z" />
    <glyph glyph-name="uni020E" unicode="&#x20e;" horiz-adv-x="944" 
d="M474 -20q-132 0 -208.5 58t-109 175t-32.5 293v776q0 152 30 264t107 174t218 62q106 0 173 -35.5t103.5 -101t50.5 -157.5t14 -206v-776q0 -176 -31.5 -293t-107 -175t-207.5 -58zM474 158q57 0 87 32.5t41 108.5t11 205v790q0 158 -25 234t-109 76q-87 0 -117.5 -75.5
t-30.5 -233.5v-791q0 -130 11 -205.5t42 -108t90 -32.5zM237 1920v13q-1 107 55.5 168t176.5 63q116 2 176.5 -55.5t61.5 -164.5v-15l-106 -2q-1 76 -41.5 98t-90.5 21q-48 -1 -87.5 -24t-38.5 -100z" />
    <glyph glyph-name="uni020F" unicode="&#x20f;" horiz-adv-x="914" 
d="M459 -18q-106 0 -172 36.5t-101.5 104t-48.5 162t-13 211.5v531q0 141 27 252t99.5 175t208.5 64q102 0 167 -36.5t101 -103t49.5 -156t13.5 -195.5v-531q0 -115 -12 -209t-46.5 -162.5t-100 -105.5t-172.5 -37zM459 153q54 0 80.5 36t35.5 100.5t9 149.5v629
q0 84 -9 146.5t-36 97.5t-80 35q-56 0 -84 -35t-36.5 -97.5t-8.5 -146.5v-629q0 -85 8.5 -149.5t36.5 -100.5t84 -36zM222 1660v13q-1 107 55.5 168t176.5 63q116 2 176.5 -55.5t61.5 -164.5v-15l-106 -2q-1 76 -41.5 98t-90.5 21q-48 -1 -87.5 -24t-38.5 -100z" />
    <glyph glyph-name="uni0210" unicode="&#x210;" horiz-adv-x="939" 
d="M144 0v1760h369q140 0 207 -49.5t87.5 -149t20.5 -250.5q0 -163 -33 -259t-128 -124q48 -8 79.5 -41t49.5 -103t25.5 -187.5t7.5 -295.5v-49t1 -70t2.5 -75t4.5 -65.5t8 -41.5h-206q-4 9 -7 40t-5 82t-3 121.5t-1 158v191.5q0 100 -8.5 152.5t-40 73t-100.5 24.5l-123 7
v-850h-207zM351 1002h132q57 0 87.5 22.5t41.5 90t11 202.5v12q0 112 -10.5 169.5t-40.5 77.5t-91 20h-130v-594zM344 1900l-255 349l152 77l197 -376zM636 1900l-224 347l158 79l160 -376z" />
    <glyph glyph-name="uni0211" unicode="&#x211;" horiz-adv-x="642" 
d="M147 0v1500h206v-167q26 87 90.5 136t164.5 49q2 0 2.5 -26.5t0.5 -60.5v-60.5v-26.5q-48 0 -96 -11.5t-90 -39t-72 -74.5v-1219h-206zM235 1640l-255 349l152 77l197 -376zM527 1640l-224 347l158 79l160 -376z" />
    <glyph glyph-name="uni0212" unicode="&#x212;" horiz-adv-x="939" 
d="M144 0v1760h369q140 0 207 -49.5t87.5 -149t20.5 -250.5q0 -163 -33 -259t-128 -124q48 -8 79.5 -41t49.5 -103t25.5 -187.5t7.5 -295.5v-49t1 -70t2.5 -75t4.5 -65.5t8 -41.5h-206q-4 9 -7 40t-5 82t-3 121.5t-1 158v191.5q0 100 -8.5 152.5t-40 73t-100.5 24.5l-123 7
v-850h-207zM351 1002h132q57 0 87.5 22.5t41.5 90t11 202.5v12q0 112 -10.5 169.5t-40.5 77.5t-91 20h-130v-594zM235 1920v13q-1 107 55.5 168t176.5 63q116 2 176.5 -55.5t61.5 -164.5v-15l-106 -2q-1 76 -41.5 98t-90.5 21q-48 -1 -87.5 -24t-38.5 -100z" />
    <glyph glyph-name="uni0213" unicode="&#x213;" horiz-adv-x="642" 
d="M147 0v1500h206v-167q26 87 90.5 136t164.5 49q2 0 2.5 -26.5t0.5 -60.5v-60.5v-26.5q-48 0 -96 -11.5t-90 -39t-72 -74.5v-1219h-206zM126 1660v13q-1 107 55.5 168t176.5 63q116 2 176.5 -55.5t61.5 -164.5v-15l-106 -2q-1 76 -41.5 98t-90.5 21q-48 -1 -87.5 -24
t-38.5 -100z" />
    <glyph glyph-name="uni0214" unicode="&#x214;" horiz-adv-x="954" 
d="M479 -21q-130 0 -206.5 51.5t-109.5 156.5t-33 265v1308h207v-1303q0 -95 7 -163t37 -104t98 -36q69 0 98 36t35.5 103.5t6.5 162.5v1304h206v-1308q0 -160 -32 -265t-107.5 -156.5t-206.5 -51.5zM351 1900l-255 349l152 77l197 -376zM643 1900l-224 347l158 79l160 -376
z" />
    <glyph glyph-name="uni0215" unicode="&#x215;" horiz-adv-x="962" 
d="M386 -20q-67 0 -124 33t-92 106.5t-35 192.5v1188h205v-1165q0 -87 31 -132t98 -45q74 0 109.5 51.5t35.5 130.5v1160h206v-1500h-206v153q-22 -70 -79 -121.5t-149 -51.5zM355 1640l-255 349l152 77l197 -376zM647 1640l-224 347l158 79l160 -376z" />
    <glyph glyph-name="uni0216" unicode="&#x216;" horiz-adv-x="954" 
d="M479 -21q-130 0 -206.5 51.5t-109.5 156.5t-33 265v1308h207v-1303q0 -95 7 -163t37 -104t98 -36q69 0 98 36t35.5 103.5t6.5 162.5v1304h206v-1308q0 -160 -32 -265t-107.5 -156.5t-206.5 -51.5zM242 1920v13q-1 107 55.5 168t176.5 63q116 2 176.5 -55.5t61.5 -164.5
v-15l-106 -2q-1 76 -41.5 98t-90.5 21q-48 -1 -87.5 -24t-38.5 -100z" />
    <glyph glyph-name="uni0217" unicode="&#x217;" horiz-adv-x="962" 
d="M386 -20q-67 0 -124 33t-92 106.5t-35 192.5v1188h205v-1165q0 -87 31 -132t98 -45q74 0 109.5 51.5t35.5 130.5v1160h206v-1500h-206v153q-22 -70 -79 -121.5t-149 -51.5zM246 1660v13q-1 107 55.5 168t176.5 63q116 2 176.5 -55.5t61.5 -164.5v-15l-106 -2
q-1 76 -41.5 98t-90.5 21q-48 -1 -87.5 -24t-38.5 -100z" />
    <glyph glyph-name="uni0218" unicode="&#x218;" horiz-adv-x="828" 
d="M428 -20q-107 0 -174 38.5t-103 109.5t-49.5 167.5t-13.5 213.5v171h201v-179q0 -185 26.5 -264.5t114.5 -79.5q61 0 89.5 28.5t36.5 91.5t8 166q0 118 -41.5 203t-119.5 163l-115 115q-50 51 -98 111.5t-79.5 137.5t-31.5 176q0 133 28 230t102 150t210 53
q107 0 171.5 -37t97 -105.5t43 -162.5t10.5 -208v-104h-198v118q0 107 -8.5 178.5t-34.5 107.5t-81 36q-50 0 -81.5 -24.5t-45.5 -75.5t-14 -131q0 -70 17 -115.5t51.5 -84.5t84.5 -92l120 -127q95 -99 155.5 -221.5t60.5 -284.5q0 -146 -28.5 -251t-101.5 -161.5
t-209 -56.5zM356 -637l49 288h-108v227h234v-218l-85 -297h-90z" />
    <glyph glyph-name="uni0219" unicode="&#x219;" horiz-adv-x="804" 
d="M426 -20q-160 0 -243 100.5t-83 333.5v113h199v-112q0 -126 27.5 -193t90.5 -67t92.5 41t29.5 147q0 53 -16 105.5t-49 104t-85 100.5l-106 101q-95 91 -145 193.5t-50 217.5q0 182 86 267.5t237 85.5q101 0 170 -44t104 -146t35 -278v-72h-195v104q0 126 -24.5 193
t-87.5 67q-61 0 -91.5 -35.5t-33.5 -129.5q-1 -48 12.5 -97t44.5 -97t80 -94l108 -101q105 -97 158.5 -208.5t53.5 -235.5q0 -170 -77.5 -267t-241.5 -97zM344 -637l49 288h-108v227h234v-218l-85 -297h-90z" />
    <glyph glyph-name="uni021A" unicode="&#x21a;" horiz-adv-x="629" 
d="M218 0v1588h-194v172h581v-172h-181v-1588h-206zM257 -637l49 288h-108v227h234v-218l-85 -297h-90z" />
    <glyph glyph-name="uni021B" unicode="&#x21b;" horiz-adv-x="596" 
d="M408 -9q-96 0 -145 23t-66 74t-17 135v1113h-137v152h137v272h205v-272h162v-152h-162v-1095q0 -38 10 -56.5t45 -24.5t109 -6v-163h-141zM315 -637l49 288h-108v227h234v-218l-85 -297h-90z" />
    <glyph glyph-name="uni0237" unicode="&#x237;" horiz-adv-x="520" 
d="M200 -211q-48 0 -84.5 4t-53.5 7v144q10 -1 25.5 -2t32.5 -1q29 0 39.5 20.5t10.5 48.5v1490h205v-1480q0 -85 -25.5 -136t-65.5 -73t-84 -22z" />
    <glyph glyph-name="uni02C6" unicode="&#x2c6;" horiz-adv-x="639" 
d="M50 1640l154 292h232l153 -292h-183l-86 205l-86 -205h-184z" />
    <glyph glyph-name="uni02C9" unicode="&#x2c9;" horiz-adv-x="696" 
d="M90 599v142h516v-142h-516z" />
    <glyph glyph-name="uni02DA" unicode="&#x2da;" horiz-adv-x="500" 
d="M250 1640q-97 0 -148.5 56.5t-51.5 131.5q0 74 51.5 130.5t148.5 56.5q98 0 149 -56.5t51 -130.5q0 -75 -51 -131.5t-149 -56.5zM250 1712q55 0 82.5 36.5t27.5 79.5q0 44 -27.5 80t-82.5 36q-53 0 -80 -36t-27 -80q0 -43 27 -79.5t80 -36.5z" />
    <glyph glyph-name="uni02DC" unicode="&#x2dc;" horiz-adv-x="725" 
d="M510 1640q-44 0 -92 20.5t-94.5 41t-88.5 20.5q-16 0 -23 -2q-16 -4 -26.5 -18.5t-24.5 -40.5l-111 49q20 68 47.5 101.5t61 45t71.5 11.5q41 0 92.5 -18.5t98 -37t71.5 -18.5h4q14 2 27 14t29 57l123 -28l-9 -37q-26 -100 -62.5 -130t-93.5 -30z" />
    <glyph glyph-name="gravecomb" unicode="&#x300;" 
d="M244 1640l-194 371h211l94 -371h-111z" />
    <glyph glyph-name="acutecomb" unicode="&#x301;" 
d="M50 1640l94 371h211l-194 -371h-111z" />
    <glyph glyph-name="uni0302" unicode="&#x302;" 
d="M50 1640l154 292h232l153 -292h-183l-86 205l-86 -205h-184z" />
    <glyph glyph-name="tildecomb" unicode="&#x303;" 
d="M510 1640q-44 0 -92 20.5t-94.5 41t-88.5 20.5q-16 0 -23 -2q-16 -4 -26.5 -18.5t-24.5 -40.5l-111 49q20 68 47.5 101.5t61 45t71.5 11.5q41 0 92.5 -18.5t98 -37t71.5 -18.5h4q14 2 27 14t29 57l123 -28l-9 -37q-26 -100 -62.5 -130t-93.5 -30z" />
    <glyph glyph-name="uni0304" unicode="&#x304;" 
d="M50 1640v142h516v-142h-516z" />
    <glyph glyph-name="uni0306" unicode="&#x306;" 
d="M284 1640q-115 0 -174.5 58.5t-59.5 165.5v15h106q0 -75 40 -98t90 -23q49 0 88.5 22t39.5 99h106v-13q0 -107 -58 -166.5t-178 -59.5z" />
    <glyph glyph-name="uni0307" unicode="&#x307;" 
d="M50 1638v188h206v-188h-206z" />
    <glyph glyph-name="uni0308" unicode="&#x308;" 
d="M534 1640v178h230v-178h-230zM50 1640v178h230v-178h-230z" />
    <glyph glyph-name="uni030A" unicode="&#x30a;" 
d="M250 1640q-97 0 -148.5 56.5t-51.5 131.5q0 74 51.5 130.5t148.5 56.5q98 0 149 -56.5t51 -130.5q0 -75 -51 -131.5t-149 -56.5zM250 1712q55 0 82.5 36.5t27.5 79.5q0 44 -27.5 80t-82.5 36q-53 0 -80 -36t-27 -80q0 -43 27 -79.5t80 -36.5z" />
    <glyph glyph-name="uni030B" unicode="&#x30b;" 
d="M436 1640l-94 50l197 376l152 -77zM144 1640l-94 50l160 376l158 -79z" />
    <glyph glyph-name="uni030C" unicode="&#x30c;" 
d="M204 1640l-154 294h184l86 -205l86 205h183l-153 -294h-232z" />
    <glyph glyph-name="uni030F" unicode="&#x30f;" 
d="M305 1640l-255 349l152 77l197 -376zM597 1640l-224 347l158 79l160 -376z" />
    <glyph glyph-name="uni0311" unicode="&#x311;" 
d="M50 1660v13q-1 107 55.5 168t176.5 63q116 2 176.5 -55.5t61.5 -164.5v-15l-106 -2q-1 76 -41.5 98t-90.5 21q-48 -1 -87.5 -24t-38.5 -100z" />
    <glyph glyph-name="uni0312" unicode="&#x312;" 
d="M225 2101l-49 -288h108v-227h-234v218l85 297h90z" />
    <glyph glyph-name="uni0326" unicode="&#x326;" 
d="M109 -637l49 288h-108v227h234v-218l-85 -297h-90z" />
    <glyph glyph-name="uni0327" unicode="&#x327;" 
d="M167 -617q-57 0 -117 18v98q95 0 144.5 20t68 52.5t18.5 69.5q0 68 -49 109t-111 54l40 196h69l12 -144q104 -43 153.5 -108t49.5 -133q0 -61 -34.5 -114t-96.5 -85.5t-147 -32.5z" />
    <glyph glyph-name="uni0328" unicode="&#x328;" 
d="M320 -626q-91 0 -151 30t-89.5 82t-29.5 118q0 101 70 211t203 185h85q-89 -88 -144.5 -186.5t-55.5 -178.5q0 -61 38 -96t111 -35q52 0 90 9.5l42 10.5v-115q-17 -10 -67.5 -22.5t-101.5 -12.5z" />
    <glyph glyph-name="uni0335" unicode="&#x335;" 
d="M50 1588v116h501v-116h-501z" />
    <glyph glyph-name="uni0394" unicode="&#x394;" horiz-adv-x="939" 
d="M66 0l267 1760h249l291 -1760h-807zM286 168h367l-190 1266h-3z" />
    <glyph glyph-name="uni03BC" unicode="&#x3bc;" horiz-adv-x="971" 
d="M137 -186v1686h205v-1165q0 -87 31 -132t98 -45q50 0 82 23.5t47.5 65t15.5 93.5v1160h206v-1500h-206v153q-22 -70 -79 -121.5t-149 -51.5q-28 0 -55.5 10t-47.5 27l53 61v-264h-201z" />
    <glyph glyph-name="uni1E02" unicode="&#x1e02;" horiz-adv-x="917" 
d="M144 0v1760h318q135 0 209 -40t104 -127t31 -229v-38q0 -147 -27.5 -239.5t-105.5 -133.5q63 -25 98 -87t49.5 -149t14.5 -187v-37q-2 -172 -34.5 -281t-107.5 -160.5t-205 -51.5h-344zM351 167h127q59 0 91 29t45 101.5t13 201.5v61q0 163 -26 234.5t-112 71.5h-138
v-699zM351 1025h117q42 0 68 9.5t40.5 38.5t19.5 86t5 153v49q0 100 -15 149t-47.5 65t-85.5 16h-102v-566zM356 1898v188h206v-188h-206z" />
    <glyph glyph-name="uni1E03" unicode="&#x1e03;" horiz-adv-x="940" 
d="M558 -13q-61 0 -116.5 31.5t-87.5 107.5v-126h-205v1779h205v-398q17 64 73.5 100.5t117.5 36.5q112 0 170 -63t79.5 -171.5t21.5 -243.5v-577q0 -135 -20.5 -243t-76 -170.5t-161.5 -62.5zM490 154q75 1 97.5 75t22.5 234v604q0 84 -7 146.5t-31.5 97.5t-77.5 35
q-45 0 -76 -20.5t-47.5 -80.5t-16.5 -179v-608q0 -152 25.5 -228t110.5 -76zM147 1917v188h206v-188h-206z" />
    <glyph glyph-name="uni1E0A" unicode="&#x1e0a;" horiz-adv-x="954" 
d="M144 0v1760h331q138 0 215 -57.5t108 -164.5t31 -256l1 -773q0 -178 -35.5 -290.5t-115 -165.5t-211.5 -53h-324zM350 167h106q56 0 93 24.5t55.5 91.5t18.5 194v810q0 166 -39 237.5t-128 71.5h-106v-1429zM334 1898v188h206v-188h-206z" />
    <glyph glyph-name="uni1E0B" unicode="&#x1e0b;" horiz-adv-x="939" 
d="M379 -13q-111 0 -165.5 65t-72 176.5t-17.5 251.5v567q0 134 24.5 240.5t87 168.5t174.5 62q59 0 105.5 -34t70.5 -84v379h206v-1779h-206v126q-30 -74 -85 -106.5t-122 -32.5zM450 154q47 0 77.5 23.5t45 87.5t14.5 183v602q0 146 -24.5 221t-107.5 75
q-75 -1 -100 -73.5t-25 -227.5v-606q0 -87 8.5 -151t34.5 -99t77 -35zM580 1917v188h206v-188h-206z" />
    <glyph glyph-name="uni1E1E" unicode="&#x1e1e;" horiz-adv-x="747" 
d="M144 0v1760h530v-173h-324v-556h304v-175h-304v-856h-206zM311 1898v188h206v-188h-206z" />
    <glyph glyph-name="uni1E1F" unicode="&#x1e1f;" horiz-adv-x="651" 
d="M202 0v1291h-129v151h129v73q0 130 55.5 200.5t176.5 70.5q59 0 102 -9.5t47 -11.5v-143q-40 6 -71 6q-67 0 -86 -28t-19 -77v-81h176v-151h-176v-1291h-205zM303 1917v188h206v-188h-206z" />
    <glyph glyph-name="uni1E40" unicode="&#x1e40;" horiz-adv-x="1296" 
d="M144 0v1760h238l272 -1407l259 1407h239v-1760h-177v666l17 658l-265 -1324h-148l-276 1324l17 -658v-666h-176zM545 1898v188h206v-188h-206z" />
    <glyph glyph-name="uni1E41" unicode="&#x1e41;" horiz-adv-x="1430" 
d="M143 0v1500h205v-156q20 71 80.5 123t153.5 52q74 0 129 -36t83 -116q37 68 102 110t152 42q119 0 181 -84.5t62 -250.5v-1184h-205v1190q0 85 -33 118.5t-87 33.5q-77 0 -111.5 -34.5t-34.5 -123.5v-1184h-206v1191q0 80 -31 115.5t-87 35.5q-73 0 -110.5 -47
t-37.5 -127v-1168h-205zM612 1638v188h206v-188h-206z" />
    <glyph glyph-name="uni1E56" unicode="&#x1e56;" horiz-adv-x="894" 
d="M144 0v1760h354q105 0 170.5 -35t100.5 -101t47.5 -159t12.5 -209v-27q0 -177 -27.5 -297t-99 -180.5t-204.5 -60.5h-147v-691h-207zM351 863h126q61 0 92 34.5t42.5 114.5t11.5 217v34q0 170 -26 251.5t-115 81.5h-131v-733zM344 1898v188h206v-188h-206z" />
    <glyph glyph-name="uni1E57" unicode="&#x1e57;" horiz-adv-x="939" 
d="M147 -274v1774h205v-125q30 74 88.5 106t119.5 32q108 0 163 -63.5t73.5 -172.5t18.5 -247v-543q0 -142 -21.5 -256.5t-83 -181.5t-183.5 -67q-58 0 -104.5 35.5t-70.5 82.5v-374h-205zM487 154q74 1 98 74.5t24 230.5v607q0 83 -7 146t-32 98.5t-79 35.5q-43 0 -74 -20
t-48 -80t-17 -180v-615q0 -149 25.5 -223t109.5 -74zM367 1638v188h206v-188h-206z" />
    <glyph glyph-name="uni1E60" unicode="&#x1e60;" horiz-adv-x="828" 
d="M428 -20q-107 0 -174 38.5t-103 109.5t-49.5 167.5t-13.5 213.5v171h201v-179q0 -185 26.5 -264.5t114.5 -79.5q61 0 89.5 28.5t36.5 91.5t8 166q0 118 -41.5 203t-119.5 163l-115 115q-50 51 -98 111.5t-79.5 137.5t-31.5 176q0 133 28 230t102 150t210 53
q107 0 171.5 -37t97 -105.5t43 -162.5t10.5 -208v-104h-198v118q0 107 -8.5 178.5t-34.5 107.5t-81 36q-50 0 -81.5 -24.5t-45.5 -75.5t-14 -131q0 -70 17 -115.5t51.5 -84.5t84.5 -92l120 -127q95 -99 155.5 -221.5t60.5 -284.5q0 -146 -28.5 -251t-101.5 -161.5
t-209 -56.5zM311 1898v188h206v-188h-206z" />
    <glyph glyph-name="uni1E61" unicode="&#x1e61;" horiz-adv-x="804" 
d="M426 -20q-160 0 -243 100.5t-83 333.5v113h199v-112q0 -126 27.5 -193t90.5 -67t92.5 41t29.5 147q0 53 -16 105.5t-49 104t-85 100.5l-106 101q-95 91 -145 193.5t-50 217.5q0 182 86 267.5t237 85.5q101 0 170 -44t104 -146t35 -278v-72h-195v104q0 126 -24.5 193
t-87.5 67q-61 0 -91.5 -35.5t-33.5 -129.5q-1 -48 12.5 -97t44.5 -97t80 -94l108 -101q105 -97 158.5 -208.5t53.5 -235.5q0 -170 -77.5 -267t-241.5 -97zM299 1638v188h206v-188h-206z" />
    <glyph glyph-name="uni1E6A" unicode="&#x1e6a;" horiz-adv-x="629" 
d="M218 0v1588h-194v172h581v-172h-181v-1588h-206zM212 1898v188h206v-188h-206z" />
    <glyph glyph-name="uni1E6B" unicode="&#x1e6b;" horiz-adv-x="596" 
d="M408 -9q-96 0 -145 23t-66 74t-17 135v1113h-137v152h137v272h205v-272h162v-152h-162v-1095q0 -38 10 -56.5t45 -24.5t109 -6v-163h-141zM173 1898v188h206v-188h-206z" />
    <glyph glyph-name="Wgrave" unicode="&#x1e80;" horiz-adv-x="1340" 
d="M286 0l-232 1760h191l150 -1349l200 1349h169l205 -1349l127 1349h190l-208 -1760h-205l-188 1299l-199 -1299h-200zM651 1900l-194 371h211l94 -371h-111z" />
    <glyph glyph-name="wgrave" unicode="&#x1e81;" horiz-adv-x="1166" 
d="M230 0l-175 1500h172l79 -835l23 -287h9l38 288l119 834h54h92h33l119 -812l41 -310h8l24 311l78 811h168l-181 -1500h-189l-151 1174l-180 -1174h-181zM564 1640l-194 371h211l94 -371h-111z" />
    <glyph glyph-name="Wacute" unicode="&#x1e82;" horiz-adv-x="1340" 
d="M286 0l-232 1760h191l150 -1349l200 1349h169l205 -1349l127 1349h190l-208 -1760h-205l-188 1299l-199 -1299h-200zM548 1900l94 371h211l-194 -371h-111z" />
    <glyph glyph-name="wacute" unicode="&#x1e83;" horiz-adv-x="1166" 
d="M230 0l-175 1500h172l79 -835l23 -287h9l38 288l119 834h54h92h33l119 -812l41 -310h8l24 311l78 811h168l-181 -1500h-189l-151 1174l-180 -1174h-181zM461 1640l94 371h211l-194 -371h-111z" />
    <glyph glyph-name="Wdieresis" unicode="&#x1e84;" horiz-adv-x="1340" 
d="M286 0l-232 1760h191l150 -1349l200 1349h169l205 -1349l127 1349h190l-208 -1760h-205l-188 1299l-199 -1299h-200zM797 1900v178h230v-178h-230zM313 1900v178h230v-178h-230z" />
    <glyph glyph-name="wdieresis" unicode="&#x1e85;" horiz-adv-x="1166" 
d="M230 0l-175 1500h172l79 -835l23 -287h9l38 288l119 834h54h92h33l119 -812l41 -310h8l24 311l78 811h168l-181 -1500h-189l-151 1174l-180 -1174h-181zM710 1640v178h230v-178h-230zM226 1640v178h230v-178h-230z" />
    <glyph glyph-name="Ygrave" unicode="&#x1ef2;" horiz-adv-x="827" 
d="M321 0v739l-306 1021h205l204 -715h4l177 715h207l-284 -1021v-739h-207zM395 1900l-194 371h211l94 -371h-111z" />
    <glyph glyph-name="ygrave" unicode="&#x1ef3;" horiz-adv-x="786" 
d="M104 -251v155h71q44 0 76.5 4.5t39.5 19.5q12 16 9.5 50.5t-8.5 74.5l-245 1447h199l108 -780l44 -406h18l39 406l98 780h198l-249 -1529q-12 -81 -30 -130t-55.5 -70.5t-111.5 -21.5h-201zM374 1640l-194 371h211l94 -371h-111z" />
    <glyph glyph-name="endash" unicode="&#x2013;" horiz-adv-x="756" 
d="M120 550v191h516v-191h-516z" />
    <glyph glyph-name="emdash" unicode="&#x2014;" horiz-adv-x="1153" 
d="M60 570v171h1032v-171h-1032z" />
    <glyph glyph-name="quoteleft" unicode="&#x2018;" horiz-adv-x="591" 
d="M144 1097v231l124 432h129l-92 -423h148v-240h-309z" />
    <glyph glyph-name="quoteright" unicode="&#x2019;" horiz-adv-x="591" 
d="M215 1097l92 423h-147v240h309v-231l-125 -432h-129z" />
    <glyph glyph-name="quotesinglbase" unicode="&#x201a;" horiz-adv-x="484" 
d="M152 -382l86 382h-141v232h302v-223l-114 -391h-133z" />
    <glyph glyph-name="quotedblleft" unicode="&#x201c;" horiz-adv-x="1030" 
d="M615 1126v224l115 410h132l-86 -401h141v-233h-302zM159 1126v224l114 410h133l-86 -401h141v-233h-302z" />
    <glyph glyph-name="quotedblright" unicode="&#x201d;" horiz-adv-x="1077" 
d="M684 1126l86 401h-140v233h302v-224l-115 -410h-133zM228 1126l86 401h-141v233h302v-224l-114 -410h-133z" />
    <glyph glyph-name="quotedblbase" unicode="&#x201e;" horiz-adv-x="1016" 
d="M677 -401l86 401h-141v233h302v-224l-114 -410h-133zM221 -401l86 401h-141v233h302v-224l-115 -410h-132z" />
    <glyph glyph-name="dagger" unicode="&#x2020;" horiz-adv-x="909" 
d="M352 0v1017h-261v165h261v410h208v-410h258v-165h-258v-1017h-208z" />
    <glyph glyph-name="daggerdbl" unicode="&#x2021;" horiz-adv-x="927" 
d="M352 0v503h-261v165h261v349h-261v165h261v410h208v-410h258v-165h-258v-349h258v-165h-258v-503h-208z" />
    <glyph glyph-name="bullet" unicode="&#x2022;" horiz-adv-x="861" 
d="M430 483q-114 0 -173.5 67t-59.5 191t59.5 191t173.5 67q115 0 174.5 -67t59.5 -191t-59.5 -191t-174.5 -67z" />
    <glyph glyph-name="uni2026" unicode="&#x2026;" horiz-adv-x="1137" 
d="M171 0v198h175v-198h-175zM473 0v198h175v-198h-175zM776 0v198h175v-198h-175z" />
    <glyph glyph-name="perthousand" unicode="&#x2030;" horiz-adv-x="3042" 
d="M652 0l708 1760h171l-700 -1760h-179zM466 581q-115 0 -183 41t-97.5 135t-29.5 252v355q0 156 29 247.5t97 131t184 39.5q117 0 185 -39.5t97 -131t29 -247.5v-355q0 -158 -29.5 -252t-97.5 -135t-184 -41zM466 742q73 0 99 43t26 152v496q0 107 -25.5 147.5t-99.5 40.5
q-73 0 -99 -41t-26 -147v-496q0 -109 26 -152t99 -43zM1729 -20q-115 0 -183 41t-97.5 134.5t-29.5 252.5v355q0 156 29 247.5t97 131t184 39.5q117 0 185 -39.5t97 -131t29 -247.5v-355q0 -159 -29.5 -252.5t-97.5 -134.5t-184 -41zM1729 141q73 0 99 43t26 152v496
q0 107 -25.5 147.5t-99.5 40.5q-73 0 -99 -41t-26 -147v-496q0 -109 26 -152t99 -43zM2576 -20q-115 0 -183.5 41t-98 134.5t-29.5 252.5v355q0 156 29 247.5t97 131t185 39.5t184.5 -39.5t96.5 -131t29 -247.5v-355q0 -159 -29.5 -252.5t-97.5 -134.5t-183 -41zM2576 141
q73 0 99 43t26 152v496q0 107 -25.5 147.5t-99.5 40.5q-73 0 -99 -41t-26 -147v-496q0 -109 26 -152t99 -43z" />
    <glyph glyph-name="guilsinglleft" unicode="&#x2039;" horiz-adv-x="606" 
d="M548 372l-478 285v182l478 271v-207l-312 -154l312 -163v-214z" />
    <glyph glyph-name="guilsinglright" unicode="&#x203a;" horiz-adv-x="727" 
d="M153 372v214l312 163l-312 154v207l478 -271v-182z" />
    <glyph glyph-name="fraction" unicode="&#x2044;" horiz-adv-x="829" 
d="M76 0l455 1768h178l-456 -1768h-177z" />
    <glyph glyph-name="uni2074" unicode="&#x2074;" horiz-adv-x="855" 
d="M483 578v224h-295v97l260 861h171v-846h92v-112h-92v-224h-136zM316 914h167v611z" />
    <glyph glyph-name="Euro" unicode="&#x20ac;" horiz-adv-x="958" 
d="M63 721v148h141v97h-141v140h495v-140h-264v-97h264v-148h-495zM510 -21q-128 0 -204 62.5t-109 183.5t-33 294v733q0 116 15 212.5t53.5 167t107.5 109t177 38.5q103 0 168 -36.5t101 -104t49.5 -160t13.5 -204.5v-195h-203v196q0 164 -23.5 245.5t-105.5 81.5
q-87 0 -116.5 -83.5t-29.5 -242.5v-762q0 -128 11 -207.5t41.5 -115.5t87.5 -36q83 0 109 84t26 276v195h205v-193q0 -176 -30.5 -296t-104.5 -181t-206 -61z" />
    <glyph glyph-name="trademark" unicode="&#x2122;" horiz-adv-x="1537" 
d="M661 475v1285h207l172 -1044l166 1044h207v-1285h-140v525l12 497l-170 -1022h-149l-177 1022l12 -497v-525h-140zM246 475v1159h-143v126h428v-126h-133v-1159h-152z" />
    <glyph glyph-name="partialdiff" unicode="&#x2202;" horiz-adv-x="1015" 
d="M436 -22q-101 0 -169.5 48t-102.5 136.5t-32 209.5q2 139 24 266t67 227t116 158t172 58q43 0 86 -10t100 -30q11 78 17.5 138.5t6.5 103.5q0 76 -19.5 127t-62.5 77.5t-112 26.5q-47 0 -105 -11.5t-126 -31.5l-28 141q83 26 156 39t137 13q107 0 182.5 -41.5
t115.5 -130.5t40 -232q0 -33 -2.5 -71t-7.5 -88t-15 -120l-92 -647q-16 -121 -70 -200t-127.5 -117.5t-148.5 -38.5zM435 145q59 0 102.5 57t56.5 160l74 538q-40 16 -67 23.5t-56 7.5q-63 0 -105 -50t-67 -131.5t-36 -177.5t-12 -188q-1 -72 6.5 -125.5t31.5 -83.5t72 -30z
" />
    <glyph glyph-name="product" unicode="&#x220f;" horiz-adv-x="981" 
d="M146 0v1760h689v-1760h-204v1598h-281v-1598h-204z" />
    <glyph glyph-name="summation" unicode="&#x2211;" horiz-adv-x="716" 
d="M116 0v181l245 700l-245 704v175h547v-179h-313l238 -701l-238 -695h313v-185h-547z" />
    <glyph glyph-name="minus" unicode="&#x2212;" horiz-adv-x="637" 
d="M60 509v232h516v-232h-516z" />
    <glyph glyph-name="uni2215" unicode="&#x2215;" horiz-adv-x="829" 
d="M76 0l455 1768h178l-456 -1768h-177z" />
    <glyph glyph-name="radical" unicode="&#x221a;" horiz-adv-x="1083" 
d="M318 0l-252 741h199l128 -483l253 1502h403v-141h-217l-303 -1619h-211z" />
    <glyph glyph-name="infinity" unicode="&#x221e;" horiz-adv-x="1300" 
d="M912 439q-71 0 -146 40t-127 106q-53 -60 -127 -96.5t-142 -36.5q-118 0 -190 80.5t-72 211.5q0 128 72 206t190 78q63 0 137 -39t132 -104q57 71 132 113.5t141 42.5q122 0 196 -81.5t74 -215.5q0 -137 -74 -221t-196 -84zM374 594q55 0 113.5 40t100.5 106
q-40 65 -99 104.5t-115 39.5q-51 0 -82 -39.5t-31 -104.5q0 -66 31 -106t82 -40zM910 594q55 0 88 40t33 106t-33 106t-88 40q-57 0 -118.5 -40t-105.5 -106q41 -66 102.5 -106t121.5 -40z" />
    <glyph glyph-name="integral" unicode="&#x222b;" horiz-adv-x="767" 
d="M270 -15q-72 0 -155 23v149q15 -1 28 -2t24 -1q53 0 78 13t33 46t8 92v1234q0 246 197 246q81 0 169 -33v-149q-30 9 -53.5 14t-41.5 5q-44 0 -60.5 -29t-16.5 -90v-1282q0 -116 -50.5 -176t-159.5 -60z" />
    <glyph glyph-name="approxequal" unicode="&#x2248;" horiz-adv-x="1117" 
d="M268 847l-149 78q38 110 96 167.5t134 57.5q39 0 95.5 -13.5t116.5 -30.5t109 -30.5t73 -13.5q26 3 51.5 30.5t42.5 84.5l164 -42q-13 -51 -35 -102t-51.5 -92.5t-65.5 -67t-77 -25.5q-57 0 -132.5 23t-149.5 46t-127 23q-55 0 -95 -93zM268 401l-149 78q38 109 96 167
t134 58q39 0 95.5 -13.5t116.5 -30.5t109 -30.5t73 -13.5q26 3 51.5 30.5t42.5 84.5l164 -42q-13 -51 -35 -102t-51.5 -92.5t-65.5 -67t-77 -25.5q-57 0 -132.5 23t-149.5 46t-127 23q-55 0 -95 -93z" />
    <glyph glyph-name="notequal" unicode="&#x2260;" horiz-adv-x="730" 
d="M54 0l150 606h-138v159h178l39 157h-217v158h256l171 688h183l-171 -688h145v-158h-185l-39 -157h224v-159h-263l-151 -606h-182z" />
    <glyph glyph-name="lessequal" unicode="&#x2264;" horiz-adv-x="781" 
d="M647 282l-577 385v211l577 381v-220l-434 -265l434 -278v-214zM102 0v144h540v-144h-540z" />
    <glyph glyph-name="greaterequal" unicode="&#x2265;" horiz-adv-x="781" 
d="M103 282v214l433 278l-433 265v220l577 -381v-211zM105 0v144h540v-144h-540z" />
    <glyph glyph-name="lozenge" unicode="&#x25ca;" horiz-adv-x="921" 
d="M327 0l-253 883l253 877h261l259 -877l-259 -883h-261zM443 179h32l174 704l-174 688h-32l-174 -688z" />
    <glyph glyph-name="uni030C.alt" 
d="M119 1586l49 288h-108v227h234v-218l-85 -297h-90z" />
    </font>
</defs>
</svg>
